(Classical) Ludwig van Beethoven — The Complete Violin Sonatas (Leonidas Kavakos, Enrico Pace) — 2013, APE (image+.cue) lossless


 

[Цитировать]

The Complete Violin Sonatas-
Жанр: Classical
Страна-производитель комплекта: Великобритания
Издатель (лейбл): Decca Classics
Номер по каталогу: 478 3523
Год издания комплекта: 2013
Годы записи фонограмм: 2011-2012
Композитор: Ludwig van Beethoven
Исполнители: Leonidas Kavakos: violin, Enrico Pace: piano
Аудио кодек: ape
Тип рипа: image+.cue
Битрейт аудио: lossless
Продолжительность: 03h56'17"
Источник: intoclassics
Наличие сканов в содержимом раздачи: да-

Треклист

CD 1 – 01h20'18"
(01-03) Violin Sonata № 1 D-Dur Op 12-1 [20'21"]
(04-06) Violin Sonata № 2 A-Dur Op 12-2 [16'16"]
(07-09) Violin Sonata № 3 Es-Dur Op 12-3 [19'04"]
(10-13) Violin Sonata № 5 F-Dur Op 24 «Spring» [24'37"]-

EAC log

Exact Audio Copy V1.0 beta 1 from 15. November 2010
EAC extraction logfile from 19. May 2013, 21:59
Ludwig van Beethoven / Sonatas for Violin and Piano CD 1
Used drive: PLEXTOR CD-R   PX-W5224A   Adapter: 3  ID: 0
Read mode               : Secure
Utilize accurate stream : Yes
Defeat audio cache      : Yes
Make use of C2 pointers : No
Read offset correction                      : 30
Overread into Lead-In and Lead-Out          : No
Fill up missing offset samples with silence : Yes
Delete leading and trailing silent blocks   : No
Null samples used in CRC calculations       : Yes
Used interface                              : Installed external ASPI interface
Used output format : Internal WAV Routines
Sample format      : 44.100 Hz; 16 Bit; Stereo
TOC of the extracted CD
     Track |   Start  |  Length  | Start sector | End sector
    ---------------------------------------------------------
        1  |  0:00.00 |  8:45.55 |         0    |    39429
        2  |  8:45.55 |  7:14.29 |     39430    |    72008
        3  | 16:00.09 |  4:20.70 |     72009    |    91578
        4  | 20:21.04 |  6:06.66 |     91579    |   119094
        5  | 26:27.70 |  5:12.50 |    119095    |   142544
        6  | 31:40.45 |  4:56.52 |    142545    |   164796
        7  | 36:37.22 |  8:21.71 |    164797    |   202442
        8  | 44:59.18 |  6:33.13 |    202443    |   231930
        9  | 51:32.31 |  4:08.48 |    231931    |   250578
       10  | 55:41.04 | 10:13.13 |    250579    |   296566
       11  | 65:54.17 |  6:21.30 |    296567    |   325171
       12  | 72:15.47 |  1:17.21 |    325172    |   330967
       13  | 73:32.68 |  6:44.72 |    330968    |   361339
Range status and errors
Selected range
     Filename G:\Ludwig van Beethoven - Sonatas for Violin and Piano CD 1.wav
     Peak level 100.0 %
     Extraction speed 0.2 X
     Range quality 100.0 %
     Test CRC 568E8EA4
     Copy CRC 568E8EA4
     Copy OK
No errors occurred
AccurateRip summary
Track  1  accurately ripped (confidence 2)  [2FF7F12F]
Track  2  accurately ripped (confidence 2)  [1AEB0A49]
Track  3  accurately ripped (confidence 2)  [91E44E52]
Track  4  accurately ripped (confidence 2)  [F54A4725]
Track  5  accurately ripped (confidence 2)  [CB0A1715]
Track  6  accurately ripped (confidence 2)  [072AAB11]
Track  7  accurately ripped (confidence 2)  [267067B0]
Track  8  accurately ripped (confidence 2)  [46AAFA00]
Track  9  accurately ripped (confidence 2)  [44047FA1]
Track 10  accurately ripped (confidence 2)  [E76E9034]
Track 11  accurately ripped (confidence 2)  [1D088F3C]
Track 12  accurately ripped (confidence 2)  [7921C278]
Track 13  accurately ripped (confidence 2)  [DEB84966]
All tracks accurately ripped
End of status report

-

CUE

REM GENRE "Classical"
REM DATE "2013"
REM DISCID "BD12D10D"
REM COMMENT "ExactAudioCopy v1.0b1"
PERFORMER "Beethoven"
TITLE "Violin Sonatas CD 1"
FILE "Violin Sonatas CD 1.ape" WAVE
  TRACK 01 AUDIO
    TITLE "Violin Sonata 1 D Op 12-1 – I. Allegro con brio"
    PERFORMER "Beethoven"
    INDEX 01 00:00:00
  TRACK 02 AUDIO
    TITLE "Violin Sonata 1 D Op 12-1 – II. Tema con variazioni: Andante con moto"
    PERFORMER "Beethoven"
    INDEX 01 08:45:55
  TRACK 03 AUDIO
    TITLE "Violin Sonata 1 D Op 12-1 – III. Rondo: Allegro"
    PERFORMER "Beethoven"
    INDEX 01 16:00:09
  TRACK 04 AUDIO
    TITLE "Violin Sonata 2 A Op 12-2 – I. Allegro vivace"
    PERFORMER "Beethoven"
    INDEX 01 20:21:04
  TRACK 05 AUDIO
    TITLE "Violin Sonata 2 A Op 12-2 – II. Andante piu tosto allegretto"
    PERFORMER "Beethoven"
    INDEX 01 26:27:70
  TRACK 06 AUDIO
    TITLE "Violin Sonata 2 A Op 12-2 – III. Allegro piacevole"
    PERFORMER "Beethoven"
    INDEX 01 31:40:45
  TRACK 07 AUDIO
    TITLE "Violin Sonata 3 Es Op 12-3 – I. Allegro con spirito"
    PERFORMER "Beethoven"
    INDEX 01 36:37:22
  TRACK 08 AUDIO
    TITLE "Violin Sonata 3 Es Op 12-3 – II. Adagio con molta espressione"
    PERFORMER "Beethoven"
    INDEX 01 44:59:18
  TRACK 09 AUDIO
    TITLE "Violin Sonata 3 Es Op 12-3 – III. Rondo: Allegro molto"
    PERFORMER "Beethoven"
    INDEX 01 51:32:31
  TRACK 10 AUDIO
    TITLE "Violin Sonata 5 F Op 24 «Spring» – I. Allegro"
    PERFORMER "Beethoven"
    INDEX 01 55:41:04
  TRACK 11 AUDIO
    TITLE "Violin Sonata 5 F Op 24 «Spring» – II. Adagio molto espressivo"
    PERFORMER "Beethoven"
    INDEX 01 65:54:17
  TRACK 12 AUDIO
    TITLE "Violin Sonata 5 F Op 24 «Spring» – III. Scherzo: Allegro molto"
    PERFORMER "Beethoven"
    INDEX 01 72:15:47
  TRACK 13 AUDIO
    TITLE "Violin Sonata 5 F Op 24 «Spring» – IV. Rondo: Allegro ma non troppo"
    PERFORMER "Beethoven"
    INDEX 01 73:32:68
-CD 2 – 01h18'24"
(01-03) Violin Sonata № 4 a-moll Op 23 [22'13"]
(04-06) Violin Sonata № 8 G-Dur Op 30-3 [17'55"]
(07-09) Violin Sonata № 9 A-Dur Op 47 «Kreutzer» [38'15"]-

EAC log

Exact Audio Copy V1.0 beta 1 from 15. November 2010
EAC extraction logfile from 19. May 2013, 23:05
Ludwig van Beethoven / Sonatas for Violin and Piano CD 2
Used drive: PLEXTOR CD-R   PX-W5224A   Adapter: 3  ID: 0
Read mode               : Secure
Utilize accurate stream : Yes
Defeat audio cache      : Yes
Make use of C2 pointers : No
Read offset correction                      : 30
Overread into Lead-In and Lead-Out          : No
Fill up missing offset samples with silence : Yes
Delete leading and trailing silent blocks   : No
Null samples used in CRC calculations       : Yes
Used interface                              : Installed external ASPI interface
Used output format : Internal WAV Routines
Sample format      : 44.100 Hz; 16 Bit; Stereo
TOC of the extracted CD
     Track |   Start  |  Length  | Start sector | End sector
    ---------------------------------------------------------
        1  |  0:00.00 |  7:41.29 |         0    |    34603
        2  |  7:41.29 |  8:49.17 |     34604    |    74295
        3  | 16:30.46 |  5:42.64 |     74296    |   100009
        4  | 22:13.35 |  6:09.73 |    100010    |   127757
        5  | 28:23.33 |  8:16.18 |    127758    |   164975
        6  | 36:39.51 |  3:28.68 |    164976    |   180643
        7  | 40:08.44 | 14:02.08 |    180644    |   243801
        8  | 54:10.52 | 15:21.73 |    243802    |   312949
        9  | 69:32.50 |  8:50.72 |    312950    |   352771
Range status and errors
Selected range
     Filename G:\Ludwig van Beethoven - Sonatas for Violin and Piano CD 2.wav
     Peak level 100.0 %
     Extraction speed 0.2 X
     Range quality 100.0 %
     Test CRC 72360201
     Copy CRC 72360201
     Copy OK
No errors occurred
AccurateRip summary
Track  1  accurately ripped (confidence 2)  [C25A2C2C]
Track  2  accurately ripped (confidence 2)  [8E2CA1D7]
Track  3  accurately ripped (confidence 2)  [A249AD49]
Track  4  accurately ripped (confidence 2)  [4862DD48]
Track  5  accurately ripped (confidence 2)  [750A46EC]
Track  6  accurately ripped (confidence 2)  [3A1ADF96]
Track  7  accurately ripped (confidence 2)  [752B3179]
Track  8  accurately ripped (confidence 2)  [819DE1E9]
Track  9  accurately ripped (confidence 2)  [6F6FA78C]
All tracks accurately ripped
End of status report

-

CUE

REM GENRE "Classical"
REM DATE "2013"
REM DISCID "64125F09"
REM COMMENT "ExactAudioCopy v1.0b1"
PERFORMER "Beethoven"
TITLE "Violin Sonatas CD 2"
FILE "Violin Sonatas CD 2.ape" WAVE
  TRACK 01 AUDIO
    TITLE "Violin Sonata 4 a Op 23 – I. Presto"
    PERFORMER "Beethoven"
    INDEX 01 00:00:00
  TRACK 02 AUDIO
    TITLE "Violin Sonata 4 a Op 23 – II. Andante scherzoso, piu allegretto"
    PERFORMER "Beethoven"
    INDEX 01 07:41:29
  TRACK 03 AUDIO
    TITLE "Violin Sonata 4 a Op 23 – III. Allegro molto"
    PERFORMER "Beethoven"
    INDEX 01 16:30:46
  TRACK 04 AUDIO
    TITLE "Violin Sonata 8 G Op 30-3 – I. Allegro assai"
    PERFORMER "Beethoven"
    INDEX 01 22:13:35
  TRACK 05 AUDIO
    TITLE "Violin Sonata 8 G Op 30-3 – II. Tempo di minuetto, ma molto moderato e grazioso"
    PERFORMER "Beethoven"
    INDEX 01 28:23:33
  TRACK 06 AUDIO
    TITLE "Violin Sonata 8 G Op 30-3 – III. Allegro vivace"
    PERFORMER "Beethoven"
    INDEX 01 36:39:51
  TRACK 07 AUDIO
    TITLE "Violin Sonata 9 A Op 47 «Kreutzer» – I. Adagio sostenuto - Presto"
    PERFORMER "Beethoven"
    INDEX 01 40:08:44
  TRACK 08 AUDIO
    TITLE "Violin Sonata 9 A Op 47 «Kreutzer» – II. Andante con variazioni"
    PERFORMER "Beethoven"
    INDEX 01 54:10:52
  TRACK 09 AUDIO
    TITLE "Violin Sonata 9 A Op 47 «Kreutzer» – III. Finale: Presto"
    PERFORMER "Beethoven"
    INDEX 01 69:32:50
-CD 3 – 01h17'36"
(01-03) Violin Sonata № 6 A-Dur Op 30-1 [24'20"]
(04-07) Violin Sonata № 7 c-moll Op 30-2 [24'15"]
(08-11) Violin Sonata № 10 G-Dur Op 96 [29'01"]-

EAC log

Exact Audio Copy V1.0 beta 1 from 15. November 2010
EAC extraction logfile from 19. May 2013, 23:39
Ludwig van Beethoven / Sonatas for Violin and Piano CD 3
Used drive: PLEXTOR CD-R   PX-W5224A   Adapter: 3  ID: 0
Read mode               : Secure
Utilize accurate stream : Yes
Defeat audio cache      : Yes
Make use of C2 pointers : No
Read offset correction                      : 30
Overread into Lead-In and Lead-Out          : No
Fill up missing offset samples with silence : Yes
Delete leading and trailing silent blocks   : No
Null samples used in CRC calculations       : Yes
Used interface                              : Installed external ASPI interface
Used output format : Internal WAV Routines
Sample format      : 44.100 Hz; 16 Bit; Stereo
TOC of the extracted CD
     Track |   Start  |  Length  | Start sector | End sector
    ---------------------------------------------------------
        1  |  0:00.00 |  8:08.45 |         0    |    36644
        2  |  8:08.45 |  7:50.17 |     36645    |    71911
        3  | 15:58.62 |  8:21.40 |     71912    |   109526
        4  | 24:20.27 |  7:13.00 |    109527    |   142001
        5  | 31:33.27 |  8:27.40 |    142002    |   180066
        6  | 40:00.67 |  3:17.51 |    180067    |   194892
        7  | 43:18.43 |  5:16.35 |    194893    |   218627
        8  | 48:35.03 | 11:20.73 |    218628    |   269700
        9  | 59:56.01 |  6:25.65 |    269701    |   298640
       10  | 66:21.66 |  1:50.23 |    298641    |   306913
       11  | 68:12.14 |  9:23.55 |    306914    |   349193
Range status and errors
Selected range
     Filename G:\Ludwig van Beethoven - Sonatas for Violin and Piano CD 3.wav
     Peak level 100.0 %
     Extraction speed 0.3 X
     Range quality 100.0 %
     Test CRC 9923F95A
     Copy CRC 9923F95A
     Copy OK
No errors occurred
AccurateRip summary
Track  1  accurately ripped (confidence 2)  [ECB0307C]
Track  2  accurately ripped (confidence 2)  [113374D3]
Track  3  accurately ripped (confidence 2)  [D86C38E2]
Track  4  accurately ripped (confidence 2)  [08F6BBD8]
Track  5  accurately ripped (confidence 2)  [365D77C4]
Track  6  accurately ripped (confidence 2)  [DB58940E]
Track  7  accurately ripped (confidence 2)  [CACE1DBC]
Track  8  accurately ripped (confidence 2)  [0C73F0C4]
Track  9  accurately ripped (confidence 2)  [6E39BA15]
Track 10  accurately ripped (confidence 2)  [36A8566A]
Track 11  accurately ripped (confidence 2)  [326FBF95]
All tracks accurately ripped
End of status report

-

CUE

REM GENRE "Classical"
REM DATE "2013"
REM DISCID "A6122F0B"
REM COMMENT "ExactAudioCopy v1.0b1"
PERFORMER "Beethoven"
TITLE "Violin Sonatas CD 3"
FILE "Violin Sonatas CD 3.ape" WAVE
  TRACK 01 AUDIO
    TITLE "Violin Sonata 6 A Op 30-1 – I. Allegro"
    PERFORMER "Beethoven"
    INDEX 01 00:00:00
  TRACK 02 AUDIO
    TITLE "Violin Sonata 6 A Op 30-1 – II. Adagio"
    PERFORMER "Beethoven"
    INDEX 01 08:08:45
  TRACK 03 AUDIO
    TITLE "Violin Sonata 6 A Op 30-1 – III. Allegretto con variazioni"
    PERFORMER "Beethoven"
    INDEX 01 15:58:62
  TRACK 04 AUDIO
    TITLE "Violin Sonata 7 c Op 30-2 – I. Allegro con brio"
    PERFORMER "Beethoven"
    INDEX 01 24:20:27
  TRACK 05 AUDIO
    TITLE "Violin Sonata 7 c Op 30-2 – II. Adagio cantabile"
    PERFORMER "Beethoven"
    INDEX 01 31:33:27
  TRACK 06 AUDIO
    TITLE "Violin Sonata 7 c Op 30-2 – III. Scherzo: Allegro"
    PERFORMER "Beethoven"
    INDEX 01 40:00:67
  TRACK 07 AUDIO
    TITLE "Violin Sonata 7 c Op 30-2 – IV. Finale: Allegro"
    PERFORMER "Beethoven"
    INDEX 01 43:18:43
  TRACK 08 AUDIO
    TITLE "Violin Sonata 10 G Op 96 – I. Allegro moderato"
    PERFORMER "Beethoven"
    INDEX 01 48:35:03
  TRACK 09 AUDIO
    TITLE "Violin Sonata 10 G Op 96 – II. Adagio espressivo"
    PERFORMER "Beethoven"
    INDEX 01 59:56:01
  TRACK 10 AUDIO
    TITLE "Violin Sonata 10 G Op 96 – III. Scherzo: Allegro"
    PERFORMER "Beethoven"
    INDEX 01 66:21:66
  TRACK 11 AUDIO
    TITLE "Violin Sonata 10 G Op 96 – IV. Poco allegretto"
    PERFORMER "Beethoven"
    INDEX 01 68:12:14

-
-



Показать сообщения:    

Текущее время: 04-Дек 13:10

Часовой пояс: UTC + 3


Вы не можете начинать темы
Вы не можете отвечать на сообщения
Вы не можете редактировать свои сообщения
Вы не можете удалять свои сообщения
Вы не можете голосовать в опросах
Вы не можете прикреплять файлы к сообщениям
Вы не можете скачивать файлы