(Classical) Astor Piazzolla, Carlos Gardel, Narine Zarifyan, Hector Stamponi, George Gershwin - Expressia - Tangos and Fantasies (Cadence Ensemble) - 2008, FLAC (tracks+.cue) lossless


 

[Цитировать]

Astor Piazzolla, Carlos Gardel, Narine Zarifyan, Hector Stamponi, George Gershwin - Expressia - Tangos and Fantasies (Cadence Ensemble)
Жанр: Classical
Год издания диска: 2008
Издатель (лейбл): SRI Canada
Номер по каталогу: SIGCD140
Дата записи: 2007
Аудиокодек: FLAC
Тип рипа: tracks+.cue
Битрейт аудио: lossless
Продолжительность: 00:57:53
Источник: собственный рип
Наличие сканов в содержимом раздачи: да
Исполнители:
Cadence Ensemble
Треклист:
Astor Piazzolla
01. Escualo (Ritmo Libre) (04:32)
02. Romance Del Diablo (06:44)
03. Tango Del Diablo (03:19)
04. Poem (06:00)
05. Muerte Del Angel (03:31)
06. Concerto Para Quinteto (10:33)
Carlos Gardel
07. Tango Por Una Cabeza (04:42)
Narine Zarifyan -
08. Tango Expressia (03:39)
Hector Stamponi
09. Tango El Ultimo Cafe (05:49)
George Gershwin
10. Fantasy On Themes Of Porgy And Bess (09:04)

LOG EAC:

Exact Audio Copy V1.0 beta 3 from 29. August 2011
EAC extraction logfile from 19. August 2015, 12:23
Cadence Ensemble / Expressia - Tangos and Fantasies
Used drive : PIONEER DVD-RW DVR-221L Adapter: 2 ID: 0
Read mode : SecureUtilize accurate stream : YesDefeat audio cache : YesMake use of C2 pointers : No
Read offset correction : 6Overread into Lead-In and Lead-Out : NoFill up missing offset samples with silence : YesDelete leading and trailing silent blocks : NoNull samples used in CRC calculations : YesUsed interface : Installed external ASPI interfaceGap handling : Appended to previous track
Used output format : User Defined EncoderSelected bitrate : 768 kBit/sQuality : HighAdd ID3 tag : NoCommand line compressor : C:\Program Files\Exact Audio Copy\Flac\flac.exeAdditional command line options : -6 -V -T "ARTIST=%artist%" -T "TITLE=%title%" -T "ALBUM=%albumtitle%" -T "DATE=%year%" -T "TRACKNUMBER=%tracknr%" -T "GENRE=%genre%" -T "COMMENT=%comment%" -T "ALBUMARTIST=%albuminterpret%" -T "COMPOSER=%composer%" -T "DISCNUMBER=%cdnumber%" -T "TOTALDISCS=%totalcds%" -T "TOTALTRACKS=%numtracks%" %source% -o %dest%
TOC of the extracted CD
Track | Start | Length | Start sector | End sector --------------------------------------------------------- 1 | 0:00.00 | 4:31.50 | 0 | 20374 2 | 4:31.50 | 6:43.52 | 20375 | 50651 3 | 11:15.27 | 3:18.54 | 50652 | 65555 4 | 14:34.06 | 6:00.29 | 65556 | 92584 5 | 20:34.35 | 3:31.15 | 92585 | 108424 6 | 24:05.50 | 10:33.32 | 108425 | 155931 7 | 34:39.07 | 4:41.69 | 155932 | 177075 8 | 39:21.01 | 3:38.60 | 177076 | 193485 9 | 42:59.61 | 5:48.66 | 193486 | 219651 10 | 48:48.52 | 9:03.57 | 219652 | 260433
Track 1
Filename D:\EAC\01 - Astor Piazzolla- Escualo (Ritmo Libre).wav
Pre-gap length 0:00:02.00
Peak level 99.8 % Extraction speed 5.1 X Track quality 100.0 % Test CRC 15B2D963 Copy CRC 15B2D963 Track not present in AccurateRip database Copy OK
Track 2
Filename D:\EAC\02 - Romance Del Diablo.wav
Peak level 99.7 % Extraction speed 5.3 X Track quality 99.9 % Test CRC F1897D5B Copy CRC F1897D5B Track not present in AccurateRip database Copy OK
Track 3
Filename D:\EAC\03 - Tango Del Diablo.wav
Peak level 99.8 % Extraction speed 5.9 X Track quality 100.0 % Test CRC DA81C9E0 Copy CRC DA81C9E0 Track not present in AccurateRip database Copy OK
Track 4
Filename D:\EAC\04 - Poem.wav
Peak level 98.3 % Extraction speed 6.8 X Track quality 100.0 % Test CRC 757D3F30 Copy CRC 757D3F30 Track not present in AccurateRip database Copy OK
Track 5
Filename D:\EAC\05 - Muerte Del Angel.wav
Peak level 99.8 % Extraction speed 6.9 X Track quality 100.0 % Test CRC 2FEEAF14 Copy CRC 2FEEAF14 Track not present in AccurateRip database Copy OK
Track 6
Filename D:\EAC\06 - Concerto Para Quinteto.wav
Peak level 99.7 % Extraction speed 7.5 X Track quality 99.9 % Test CRC 37E7C18B Copy CRC 37E7C18B Track not present in AccurateRip database Copy OK
Track 7
Filename D:\EAC\07 - Carlos Gardel - Tango Por Una Cabeza.wav
Peak level 99.7 % Extraction speed 8.2 X Track quality 100.0 % Test CRC 18535E09 Copy CRC 18535E09 Track not present in AccurateRip database Copy OK
Track 8
Filename D:\EAC\08 - Narine Zarifyan - Tango Expressia.wav
Peak level 99.7 % Extraction speed 6.6 X Track quality 99.9 % Test CRC BEEEEBA2 Copy CRC BEEEEBA2 Track not present in AccurateRip database Copy OK
Track 9
Filename D:\EAC\09 - Hector Stamponi - Tango El Ultimo Cafe.wav
Peak level 99.7 % Extraction speed 9.0 X Track quality 100.0 % Test CRC DAF8EEAD Copy CRC DAF8EEAD Track not present in AccurateRip database Copy OK
Track 10
Filename D:\EAC\10 - George Gershwin - Fantasy On Themes Of Porgy And Bess.wav
Peak level 99.8 % Extraction speed 9.9 X Track quality 100.0 % Test CRC DCAF374E Copy CRC DCAF374E Track not present in AccurateRip database Copy OK
None of the tracks are present in the AccurateRip database
No errors occurred
End of status report
==== Log checksum 8729260042D0D3FC361812492637EC40F42BB31116C10F4C163DA92446623089 ====

LOG (.CUE):

REM GENRE ClassicalREM DATE 2008REM DISCID 8A0D900AREM COMMENT "ExactAudioCopy v1.0b3"PERFORMER "Cadence Ensemble"TITLE "Expressia - Tangos and Fantasies"FILE "01 - Astor Piazzolla- Escualo (Ritmo Libre).wav" WAVE TRACK 01 AUDIO TITLE "Astor Piazzolla- Escualo (Ritmo Libre)" PERFORMER "Cadence Ensemble" INDEX 01 00:00:00FILE "02 - Romance Del Diablo.wav" WAVE TRACK 02 AUDIO TITLE "Romance Del Diablo" PERFORMER "Cadence Ensemble" INDEX 01 00:00:00FILE "03 - Tango Del Diablo.wav" WAVE TRACK 03 AUDIO TITLE "Tango Del Diablo" PERFORMER "Cadence Ensemble" INDEX 01 00:00:00FILE "04 - Poem.wav" WAVE TRACK 04 AUDIO TITLE "Poem" PERFORMER "Cadence Ensemble" INDEX 01 00:00:00FILE "05 - Muerte Del Angel.wav" WAVE TRACK 05 AUDIO TITLE "Muerte Del Angel" PERFORMER "Cadence Ensemble" INDEX 01 00:00:00FILE "06 - Concerto Para Quinteto.wav" WAVE TRACK 06 AUDIO TITLE "Concerto Para Quinteto" PERFORMER "Cadence Ensemble" INDEX 01 00:00:00FILE "07 - Carlos Gardel - Tango Por Una Cabeza.wav" WAVE TRACK 07 AUDIO TITLE "Carlos Gardel - Tango Por Una Cabeza" PERFORMER "Cadence Ensemble" INDEX 01 00:00:00FILE "08 - Narine Zarifyan - Tango Expressia.wav" WAVE TRACK 08 AUDIO TITLE "Narine Zarifyan - Tango Expressia" PERFORMER "Cadence Ensemble" INDEX 01 00:00:00FILE "09 - Hector Stamponi - Tango El Ultimo Cafe.wav" WAVE TRACK 09 AUDIO TITLE "Hector Stamponi - Tango El Ultimo Cafe" PERFORMER "Cadence Ensemble" INDEX 01 00:00:00FILE "10 - George Gershwin - Fantasy On Themes Of Porgy And Bess.wav" WAVE TRACK 10 AUDIO TITLE "George Gershwin - Fantasy On Themes Of Porgy And Bess" PERFORMER "Cadence Ensemble" INDEX 01 00:00:00



Показать сообщения:    

Текущее время: 07-Дек 17:29

Часовой пояс: UTC + 3


Вы не можете начинать темы
Вы не можете отвечать на сообщения
Вы не можете редактировать свои сообщения
Вы не можете удалять свои сообщения
Вы не можете голосовать в опросах
Вы не можете прикреплять файлы к сообщениям
Вы не можете скачивать файлы