(Classical) Bohuslav Martinu - String Quartets Nos. 3, 4 & 5 - Emperor String Quartet - 2004, FLAC (image+.cue) lossless


 

[Цитировать]

Bohuslav Martinů - String Quartets Nos. 3, 4 & 5 - Emperor String Quartet
Жанр: Classical
Страна-производитель диска: Sweden
Год издания диска: 2004
Издатель (лейбл): BIS
Номер по каталогу: BIS-CD-1389
Дата записи: 2002
Аудиокодек: FLAC
Тип рипа: image+.cue
Битрейт аудио: lossless
Продолжительность: 61:10
Источник: собственный рип
Наличие сканов в содержимом раздачи: да
Треклист:
Bohuslav Martinů (1890-1959)
[1]-[4] String Quartet No.5 (1938)
[5]-[8] String Quartet No.4 (1937)
[9]-[11] String Quartet No.3 (1929)
Исполнители:
Emperor String Quartet
Martin Burgess violin
Clare Hayes violin
Fiona Bonds viola
William Schofield cello

Лог создания рипа

Exact Audio Copy V1.0 beta 3 from 29. August 2011
EAC extraction logfile from 5. February 2015, 1:02
Emperor String Quartet / Martinu - String Quartets Nos. 3, 4 & 5
Used drive : HL-DT-STDVDRAM GU70N Adapter: 0 ID: 0
Read mode : SecureUtilize accurate stream : YesDefeat audio cache : YesMake use of C2 pointers : No
Read offset correction : 48Overread into Lead-In and Lead-Out : NoFill up missing offset samples with silence : YesDelete leading and trailing silent blocks : NoNull samples used in CRC calculations : YesUsed interface : Native Win32 interface for Win NT & 2000
Used output format : User Defined EncoderSelected bitrate : 128 kBit/sQuality : HighAdd ID3 tag : NoCommand line compressor : C:\Program Files (x86)\Exact Audio Copy\Flac\flac.exeAdditional command line options : -V -8 -T "Date=%year%" -T "Genre=%genre%" %source%
TOC of the extracted CD
Track | Start | Length | Start sector | End sector --------------------------------------------------------- 1 | 0:00.00 | 6:12.38 | 0 | 27937 2 | 6:12.38 | 6:44.37 | 27938 | 58274 3 | 12:57.00 | 5:41.40 | 58275 | 83889 4 | 18:38.40 | 8:57.73 | 83890 | 124237 5 | 27:36.38 | 5:41.00 | 124238 | 149812 6 | 33:17.38 | 3:35.37 | 149813 | 165974 7 | 36:53.00 | 6:05.17 | 165975 | 193366 8 | 42:58.17 | 4:47.58 | 193367 | 214949 9 | 47:46.00 | 4:18.00 | 214950 | 234299 10 | 52:04.00 | 5:07.00 | 234300 | 257324 11 | 57:11.00 | 3:59.00 | 257325 | 275249
Range status and errors
Selected range
Filename C:\temp\BIS-CD-1389 - Martinu - String Quartets Nos. 3, 4 & 5\Martinu - String Quartets Nos. 3, 4 & 5.wav
Peak level 99.9 % Extraction speed 5.1 X Range quality 100.0 % Test CRC 8BF6AFD2 Copy CRC 8BF6AFD2 Copy OK
No errors occurred
AccurateRip summary
Track 1 accurately ripped (confidence 2) [F248ADAF] (AR v1)Track 2 accurately ripped (confidence 2) [1B3F74CB] (AR v1)Track 3 accurately ripped (confidence 2) [F24DD208] (AR v1)Track 4 accurately ripped (confidence 2) [85185C1E] (AR v1)Track 5 accurately ripped (confidence 2) [0725931A] (AR v1)Track 6 accurately ripped (confidence 2) [959B14D1] (AR v1)Track 7 accurately ripped (confidence 2) [F2B0DE6B] (AR v1)Track 8 accurately ripped (confidence 2) [4916C152] (AR v1)Track 9 accurately ripped (confidence 2) [2991D30A] (AR v1)Track 10 accurately ripped (confidence 2) [BC28F8F8] (AR v1)Track 11 accurately ripped (confidence 2) [07D60301] (AR v1)
All tracks accurately ripped
End of status report
==== Log checksum 5F719CBFC1E7FE4B3381CA77E958E0399D82615BA45AE43B3762D4AA98D43CC8 ====



Показать сообщения:    

Текущее время: 10-Дек 17:49

Часовой пояс: UTC + 3


Вы не можете начинать темы
Вы не можете отвечать на сообщения
Вы не можете редактировать свои сообщения
Вы не можете удалять свои сообщения
Вы не можете голосовать в опросах
Вы не можете прикреплять файлы к сообщениям
Вы не можете скачивать файлы