(Classical) Atli Ingolfsson - Enter - The Caput Ensemble, Arditti Quartet - 2004, FLAC (image+.cue) lossless


 

[Цитировать]

Atli Ingólfsson - Enter - The Caput Ensemble, Arditti Quartet
Жанр: Classical
Страна-производитель диска: Sweden
Год издания диска: 2004
Издатель (лейбл): BIS
Номер по каталогу: BIS-CD-1298
Дата записи: 2001-2004
Аудиокодек: FLAC
Тип рипа: image+.cue
Битрейт аудио: lossless
Продолжительность: 71:02
Источник: собственный рип
Наличие сканов в содержимом раздачи: да
Треклист:
Atli Ingólfsson (b.1962)
[1] The Elves' Accent (1998) for quintet
[2] /Slash 1/
[3] Object of Terror (2000) for ensemble of 14
[4] /Slash 2/
[5] HZH: String Quartet No.1 (1999)
[6] /Slash 3/
[7] La métrique du cri (1996) for ensemble of 11
[8] /Slash 4/
[9] Flecte Lapis II (1998) for clarinet and keyboard sampler
Исполнители:
The Caput Ensemble ([1], [3], [7])
Atli Ingólfsson electronics ([2], [4], [6], [8])
Arditti Quartet ([5])
Guðni Franzson clarinet ([9])
Massimiliano Viel keyboard ([9])

Лог создания рипа

Exact Audio Copy V1.0 beta 3 from 29. August 2011
EAC extraction logfile from 2. February 2015, 2:21
Atli Ingolfsson / Ingolfsson - Enter
Used drive : HL-DT-STDVDRAM GU70N Adapter: 0 ID: 0
Read mode : SecureUtilize accurate stream : YesDefeat audio cache : YesMake use of C2 pointers : No
Read offset correction : 48Overread into Lead-In and Lead-Out : NoFill up missing offset samples with silence : YesDelete leading and trailing silent blocks : NoNull samples used in CRC calculations : YesUsed interface : Native Win32 interface for Win NT & 2000
Used output format : User Defined EncoderSelected bitrate : 128 kBit/sQuality : HighAdd ID3 tag : NoCommand line compressor : C:\Program Files (x86)\Exact Audio Copy\Flac\flac.exeAdditional command line options : -V -8 -T "Date=%year%" -T "Genre=%genre%" %source%
TOC of the extracted CD
Track | Start | Length | Start sector | End sector --------------------------------------------------------- 1 | 0:00.00 | 10:15.20 | 0 | 46144 2 | 10:15.20 | 0:25.26 | 46145 | 48045 3 | 10:40.46 | 15:37.73 | 48046 | 118393 4 | 26:18.44 | 0:17.70 | 118394 | 119738 5 | 26:36.39 | 17:25.68 | 119739 | 198181 6 | 44:02.32 | 0:18.40 | 198182 | 199571 7 | 44:20.72 | 12:14.67 | 199572 | 254688 8 | 56:35.64 | 0:17.02 | 254689 | 255965 9 | 56:52.66 | 14:09.20 | 255966 | 319660
Range status and errors
Selected range
Filename C:\temp\BIS-CD-1298 - Ingolfsson - Enter\Ingolfsson - Enter.wav
Peak level 98.2 % Extraction speed 2.3 X Range quality 100.0 % Test CRC 6B8044F2 Copy CRC 6B8044F2 Copy OK
No errors occurred
AccurateRip summary
Track 1 accurately ripped (confidence 1) [09F29397] (AR v2)Track 2 accurately ripped (confidence 1) [7D4BAB22] (AR v2)Track 3 accurately ripped (confidence 1) [061D85EC] (AR v2)Track 4 accurately ripped (confidence 1) [C007D319] (AR v2)Track 5 accurately ripped (confidence 1) [1273F39E] (AR v2)Track 6 accurately ripped (confidence 1) [758F4BAC] (AR v2)Track 7 accurately ripped (confidence 1) [B3CBD557] (AR v2)Track 8 accurately ripped (confidence 1) [0F5E8630] (AR v2)Track 9 accurately ripped (confidence 1) [60670241] (AR v2)
All tracks accurately ripped
End of status report
==== Log checksum C0922E7CDA5EB02741A62FD67965FFCEBCC215AF1534DF9A819BBE6DFB567157 ====



Показать сообщения:    

Текущее время: 08-Дек 17:22

Часовой пояс: UTC + 3


Вы не можете начинать темы
Вы не можете отвечать на сообщения
Вы не можете редактировать свои сообщения
Вы не можете удалять свои сообщения
Вы не можете голосовать в опросах
Вы не можете прикреплять файлы к сообщениям
Вы не можете скачивать файлы