(Classical, period) Антонин Рейха – Квинтет с фаготом / Anton Reicha — Variations & Quintet for bassoon & strings (Island: Jane Gower, Madeleine Easton, Alice Evans, Galina Zinchenko, Catherine Jones) - 2011, FLAC (tracks+.cue) lossless


 

[Цитировать]

Антонин Рейха – Вариации и Квинтет с фаготом / Anton Reicha — Variations & Quintet for bassoon & strings (Island)
Жанр: Classical, period
Страна-производитель диска: Германия?
Год издания диска: 2011
Издатель (лейбл): Ars Produktion
Номер по каталогу: 38 091
Дата записи: январь 2011, Мокулта
Аудиокодек: FLAC
Тип рипа: tracks+.cue
Битрейт аудио: lossless
Продолжительность: 00:49:51
Источник: duckjammy в MIMIC
Наличие сканов в содержимом раздачи: да
Треклист:-Антонин Рейха (1770 — 1836).-Вариации G-dur для фагота в сопровождении двух скрипок, альта и виолончели.
01. Вступление. — Тема. — Вариации I — VI. — Кода [12:00].
Большой квинтет B-dur для фагота, двух скрипок, альта и виолончели (1826).
02. I. Allegro moderato [15:28].
03. II. Lento arioso [07:23].
04. III. Menuet. Allegro assai [04:23].
05. IV. Finale. Presto [10:28].-Исполнители:
Island (Ensemble for Bassoon and Strings):
Jane Gower (фагот),
Madeleine Easton (скрипка),
Alice Evans (скрипка),
Galina Zinchenko (альт),
Catherine Jones (виолончель).
Инструменты эпохи.-

Лог создания рипа

Exact Audio Copy V1.0 beta 3 from 29. August 2011
EAC extraction logfile from 10. May 2015, 20:08
Island / Reicha - Variations & Grand Quintet
Used drive : TSSTcorpCDDVDW SE-208DB Adapter: 1 ID: 0
Read mode : SecureUtilize accurate stream : YesDefeat audio cache : YesMake use of C2 pointers : No
Read offset correction : 6Overread into Lead-In and Lead-Out : NoFill up missing offset samples with silence : YesDelete leading and trailing silent blocks : NoNull samples used in CRC calculations : YesUsed interface : Native Win32 interface for Win NT & 2000Gap handling : Appended to previous track
Used output format : User Defined EncoderSelected bitrate : 1024 kBit/sQuality : HighAdd ID3 tag : NoCommand line compressor : C:\Program Files (x86)\Exact Audio Copy\FLAC\FLAC.EXEAdditional command line options : -8 -V -T "ARTIST=%artist%" -T "TITLE=%title%" -T "ALBUM=%albumtitle%" -T "DATE=%year%" -T "TRACKNUMBER=%tracknr%" -T "GENRE=%genre%" -T "PERFORMER=%albuminterpret%" -T "COMPOSER=%composer%" %haslyrics%--tag-from-file=LYRICS="%lyricsfile%"%haslyrics% -T "ALBUMARTIST=%albumartist%" -T "DISCNUMBER=%cdnumber%" -T "TOTALDISCS=%totalcds%" -T "TOTALTRACKS=%numtracks%" -T "COMMENT=%comment%" %source% -o %dest%
TOC of the extracted CD
Track | Start | Length | Start sector | End sector --------------------------------------------------------- 1 | 0:00.00 | 12:07.29 | 0 | 54553 2 | 12:07.29 | 15:28.15 | 54554 | 124168 3 | 27:35.44 | 7:23.27 | 124169 | 157420 4 | 34:58.71 | 4:23.65 | 157421 | 177210 5 | 39:22.61 | 10:28.30 | 177211 | 224340
Track 1
Filename C:\E\01 - Variationen für Fagott unter Begleitung von 2 Violinen, Viola und Cello.wav
Pre-gap length 0:00:02.00
Peak level 81.1 % Extraction speed 2.9 X Track quality 99.9 % Test CRC A7296FED Copy CRC A7296FED Accurately ripped (confidence 2) [4CD5BBB9] (AR v2) Copy OK
Track 2
Filename C:\E\02 - Grand Quintett für Fagott, 2 Violinen, Viola und Cello - Allegro moderato.wav
Pre-gap length 0:00:07.34
Peak level 90.6 % Extraction speed 2.9 X Track quality 100.0 % Test CRC CB8CC01F Copy CRC CB8CC01F Accurately ripped (confidence 2) [F4D42DFB] (AR v2) Copy OK
Track 3
Filename C:\E\03 - Grand Quintett für Fagott, 2 Violinen, Viola und Cello - Lento arioso.wav
Peak level 54.4 % Extraction speed 2.3 X Track quality 100.0 % Test CRC E5EAC76C Copy CRC E5EAC76C Accurately ripped (confidence 2) [BE569AD8] (AR v2) Copy OK
Track 4
Filename C:\E\04 - Grand Quintett für Fagott, 2 Violinen, Viola und Cello - Menuet. Allegro assai.wav
Peak level 97.9 % Extraction speed 3.4 X Track quality 100.0 % Test CRC 2430EB8F Copy CRC 2430EB8F Accurately ripped (confidence 2) [D57F934F] (AR v2) Copy OK
Track 5
Filename C:\E\05 - Grand Quintett für Fagott, 2 Violinen, Viola und Cello - Finale. Presto.wav
Peak level 98.8 % Extraction speed 4.0 X Track quality 100.0 % Test CRC F824AE4F Copy CRC F824AE4F Accurately ripped (confidence 2) [D740D261] (AR v2) Copy OK
All tracks accurately ripped
No errors occurred
End of status report
==== Log checksum 90E6E3AEF7B5BB594CE57237A126A36AEF08A68150B943680BECF882930B9430 ====

Содержание индексной карты (.CUE)

REM GENRE "Chamber Music"REM DATE 2011REM DISCID 390BAF05REM COMMENT "ExactAudioCopy v1.0b3"CATALOG 2053010050000PERFORMER "Island"TITLE "Reicha - Variations & Grand Quintet"FILE "01 - Variations for solo bassoon, accompanied by 2 violins, viola & cello.flac" WAVE TRACK 01 AUDIO TITLE "Variations for solo bassoon, accompanied by 2 violins, viola & cello" PERFORMER "Island" ISRC DEFG21109101 INDEX 01 00:00:00FILE "02 - Grand Quintet for bassoon, 2 violins, viola & cello - I. Allegro moderato.flac" WAVE TRACK 02 AUDIO TITLE "Grand Quintet for bassoon, 2 violins, viola & cello - I. Allegro moderato" PERFORMER "Island" ISRC DEFG21109102 INDEX 01 00:00:00FILE "03 - Grand Quintet for bassoon, 2 violins, viola & cello - II. Lento arioso.flac" WAVE TRACK 03 AUDIO TITLE "Grand Quintet for bassoon, 2 violins, viola & cello - II. Lento arioso" PERFORMER "Island" ISRC DEFG21109103 INDEX 01 00:00:00FILE "04 - Grand Quintet for bassoon, 2 violins, viola & cello - III. Menuet. Allegro assai.flac" WAVE TRACK 04 AUDIO TITLE "Grand Quintet for bassoon, 2 violins, viola & cello - III. Menuet. Allegro assai" PERFORMER "Island" ISRC DEFG21109104 INDEX 01 00:00:00FILE "05 - Grand Quintet for bassoon, 2 violins, viola & cello - IV. Finale. Presto.flac" WAVE TRACK 05 AUDIO TITLE "Grand Quintet for bassoon, 2 violins, viola & cello - IV. Finale. Presto" PERFORMER "Island" ISRC DEFG21109105 INDEX 01 00:00:00
-Кроммер. Квартеты с фаготом. Гуммель. Струнное трио (Island).



Показать сообщения:    

Текущее время: 05-Дек 21:36

Часовой пояс: UTC + 3


Вы не можете начинать темы
Вы не можете отвечать на сообщения
Вы не можете редактировать свои сообщения
Вы не можете удалять свои сообщения
Вы не можете голосовать в опросах
Вы не можете прикреплять файлы к сообщениям
Вы не можете скачивать файлы