(Classical) Beethoven - Complete Cello Sonatas & Variations - Timora Rosler, Klara Wurtz - 2013, FLAC (image+.cue) lossless


 

[Цитировать]

Beethoven - Complete Cello Sonatas & Variations - Timora Rosler, Klára Würtz
Жанр: Classical
Год издания диска: 2013
Издатель (лейбл): Brilliant Classics
Номер по каталогу: 94624
Дата записи: 2013
Аудиокодек: FLAC
Тип рипа: image+.cue
Битрейт аудио: lossless
Продолжительность: 135:55
Источник: собственный рип
Наличие сканов в содержимом раздачи: да
Треклист:
Ludwig van Beethoven
CD1
[1]-[2] Cello Sonata in F major, Op.5 No.1
[3]-[5] Cello Sonata in G minor, Op.5 No.2
[6]-[8] Cello Sonata in A major, Op.69
CD2
[1]-[2] Cello Sonata in C major, Op.102 No.1
[3]-[5] Cello Sonata in D major, Op.102 No.2
[6]-[18] 12 Variations, WoO 45
on 'See the Conqu'ring Hero comes' from Handel's Judas Maccabeus
[19]-[31] 12 Variations, Op.66
on 'Ein Mädchen oder Weibchen' from Mozart's Die Zauberflöte
[32]-[39] 7 Variations, WoO 46
on 'Bei Männern, welche Liebe fühlen' from Mozart's Die Zauberflöte
Исполнители:
Timora Rosler cello
Klára Würtz piano

Лог создания рипа: CD1

Exact Audio Copy V1.0 beta 3 from 29. August 2011
EAC extraction logfile from 19. January 2015, 21:08
Timora Rosler, Klara Wurtz / Beethoven - Cello Sonatas & Variations - CD1
Used drive : HL-DT-STDVDRAM GU70N Adapter: 0 ID: 0
Read mode : SecureUtilize accurate stream : YesDefeat audio cache : YesMake use of C2 pointers : No
Read offset correction : 48Overread into Lead-In and Lead-Out : NoFill up missing offset samples with silence : YesDelete leading and trailing silent blocks : NoNull samples used in CRC calculations : YesUsed interface : Native Win32 interface for Win NT & 2000
Used output format : User Defined EncoderSelected bitrate : 128 kBit/sQuality : HighAdd ID3 tag : NoCommand line compressor : C:\Program Files (x86)\Exact Audio Copy\Flac\flac.exeAdditional command line options : -V -8 -T "Date=%year%" -T "Genre=%genre%" %source%
TOC of the extracted CD
Track | Start | Length | Start sector | End sector --------------------------------------------------------- 1 | 0:00.00 | 17:01.60 | 0 | 76634 2 | 17:01.60 | 6:20.46 | 76635 | 105180 3 | 23:22.31 | 5:35.60 | 105181 | 130365 4 | 28:58.16 | 9:53.33 | 130366 | 174873 5 | 38:51.49 | 8:28.36 | 174874 | 213009 6 | 47:20.10 | 12:30.67 | 213010 | 269326 7 | 59:51.02 | 5:03.71 | 269327 | 292122 8 | 64:54.73 | 8:11.59 | 292123 | 329006
Range status and errors
Selected range
Filename C:\temp\Beethoven - Cello Sonatas & Variations - Rosler, Wurtz\CD1\Beethoven - Cello Sonatas & Variations - CD1.wav
Peak level 100.0 % Extraction speed 2.3 X Range quality 100.0 % Test CRC 0D3281B5 Copy CRC 0D3281B5 Copy OK
No errors occurred
AccurateRip summary
Track 1 cannot be verified as accurate (confidence 5) [5DFC7C44], AccurateRip returned [0EAAA7E4] (AR v2)Track 2 cannot be verified as accurate (confidence 5) [E4688EDF], AccurateRip returned [D30E35C6] (AR v2)Track 3 cannot be verified as accurate (confidence 5) [8E27C154], AccurateRip returned [AD9801C3] (AR v2)Track 4 cannot be verified as accurate (confidence 5) [DB6EDC2C], AccurateRip returned [D9ED6F03] (AR v2)Track 5 cannot be verified as accurate (confidence 5) [35B9D880], AccurateRip returned [410C6E38] (AR v2)Track 6 cannot be verified as accurate (confidence 5) [BF30646B], AccurateRip returned [1F992CBF] (AR v2)Track 7 cannot be verified as accurate (confidence 5) [D4CA071E], AccurateRip returned [60161F44] (AR v2)Track 8 cannot be verified as accurate (confidence 5) [735FA6A7], AccurateRip returned [09FA9804] (AR v2)
No tracks could be verified as accurateYou may have a different pressing from the one(s) in the database
End of status report
==== Log checksum 8C17D1646F0EB2FDACF46A680DACE510A13B98B960CCA7E6C8F947E9D74106DF ====

Лог создания рипа: CD2

Exact Audio Copy V1.0 beta 3 from 29. August 2011
EAC extraction logfile from 19. January 2015, 22:34
Timora Rosler, Klara Wurtz / Beethoven - Cello Sonatas & Variations - CD2
Used drive : HL-DT-STDVDRAM GU70N Adapter: 0 ID: 0
Read mode : SecureUtilize accurate stream : YesDefeat audio cache : YesMake use of C2 pointers : No
Read offset correction : 48Overread into Lead-In and Lead-Out : NoFill up missing offset samples with silence : YesDelete leading and trailing silent blocks : NoNull samples used in CRC calculations : YesUsed interface : Native Win32 interface for Win NT & 2000
Used output format : User Defined EncoderSelected bitrate : 128 kBit/sQuality : HighAdd ID3 tag : NoCommand line compressor : C:\Program Files (x86)\Exact Audio Copy\Flac\flac.exeAdditional command line options : -V -8 -T "Date=%year%" -T "Genre=%genre%" %source%
TOC of the extracted CD
Track | Start | Length | Start sector | End sector --------------------------------------------------------- 1 | 0:00.00 | 7:12.62 | 0 | 32461 2 | 7:12.62 | 6:58.47 | 32462 | 63858 3 | 14:11.34 | 6:24.57 | 63859 | 92715 4 | 20:36.16 | 7:49.06 | 92716 | 127896 5 | 28:25.22 | 4:28.13 | 127897 | 148009 6 | 32:53.35 | 0:42.36 | 148010 | 151195 7 | 33:35.71 | 0:37.56 | 151196 | 154026 8 | 34:13.52 | 0:38.06 | 154027 | 156882 9 | 34:51.58 | 0:38.12 | 156883 | 159744 10 | 35:29.70 | 0:43.52 | 159745 | 163021 11 | 36:13.47 | 0:43.70 | 163022 | 166316 12 | 36:57.42 | 0:38.35 | 166317 | 169201 13 | 37:36.02 | 0:38.61 | 169202 | 172112 14 | 38:14.63 | 0:38.45 | 172113 | 175007 15 | 38:53.33 | 0:42.22 | 175008 | 178179 16 | 39:35.55 | 0:43.42 | 178180 | 181446 17 | 40:19.22 | 2:58.69 | 181447 | 194865 18 | 43:18.16 | 1:02.24 | 194866 | 199539 19 | 44:20.40 | 0:30.34 | 199540 | 201823 20 | 44:50.74 | 0:31.45 | 201824 | 204193 21 | 45:22.44 | 0:33.22 | 204194 | 206690 22 | 45:55.66 | 0:29.52 | 206691 | 208917 23 | 46:25.43 | 0:33.22 | 208918 | 211414 24 | 46:58.65 | 0:33.37 | 211415 | 213926 25 | 47:32.27 | 0:27.55 | 213927 | 216006 26 | 48:00.07 | 0:38.51 | 216007 | 218907 27 | 48:38.58 | 0:37.45 | 218908 | 221727 28 | 49:16.28 | 0:31.65 | 221728 | 224117 29 | 49:48.18 | 1:08.31 | 224118 | 229248 30 | 50:56.49 | 0:55.02 | 229249 | 233375 31 | 51:51.51 | 1:58.71 | 233376 | 242296 32 | 53:50.47 | 0:44.43 | 242297 | 245639 33 | 54:35.15 | 0:38.21 | 245640 | 248510 34 | 55:13.36 | 0:42.31 | 248511 | 251691 35 | 55:55.67 | 1:04.05 | 251692 | 256496 36 | 56:59.72 | 1:16.34 | 256497 | 262230 37 | 58:16.31 | 0:36.11 | 262231 | 264941 38 | 58:52.42 | 2:06.59 | 264942 | 274450 39 | 60:59.26 | 1:49.54 | 274451 | 282679
Range status and errors
Selected range
Filename C:\temp\Beethoven - Cello Sonatas & Variations - Rosler, Wurtz\CD2\Beethoven - Cello Sonatas & Variations - CD2.wav
Peak level 100.0 % Extraction speed 2.1 X Range quality 100.0 % Test CRC B76F8FB4 Copy CRC B76F8FB4 Copy OK
No errors occurred
AccurateRip summary
Track 1 cannot be verified as accurate (confidence 5) [04DF954A], AccurateRip returned [E3D81E48] (AR v2)Track 2 cannot be verified as accurate (confidence 5) [33E90583], AccurateRip returned [D0C2DC23] (AR v2)Track 3 cannot be verified as accurate (confidence 5) [D870E1DA], AccurateRip returned [635A9EE7] (AR v2)Track 4 cannot be verified as accurate (confidence 5) [553F9D37], AccurateRip returned [C318CD79] (AR v2)Track 5 cannot be verified as accurate (confidence 5) [BFCDA4DE], AccurateRip returned [38CA9633] (AR v2)Track 6 cannot be verified as accurate (confidence 5) [BEF64CFC], AccurateRip returned [DA2AB645] (AR v2)Track 7 cannot be verified as accurate (confidence 5) [84F8AC7B], AccurateRip returned [EE8222D3] (AR v2)Track 8 cannot be verified as accurate (confidence 5) [117E7524], AccurateRip returned [BF695E36] (AR v2)Track 9 cannot be verified as accurate (confidence 5) [13412395], AccurateRip returned [28AB868A] (AR v2)Track 10 cannot be verified as accurate (confidence 5) [09E6294E], AccurateRip returned [C9D1E39A] (AR v2)Track 11 cannot be verified as accurate (confidence 5) [EC1AD03A], AccurateRip returned [26D01B2D] (AR v2)Track 12 cannot be verified as accurate (confidence 5) [60803ED7], AccurateRip returned [E908F26F] (AR v2)Track 13 cannot be verified as accurate (confidence 5) [F47B46EA], AccurateRip returned [CB19CA93] (AR v2)Track 14 cannot be verified as accurate (confidence 5) [3467F128], AccurateRip returned [4127E79A] (AR v2)Track 15 cannot be verified as accurate (confidence 5) [8222A04F], AccurateRip returned [31683474] (AR v2)Track 16 cannot be verified as accurate (confidence 5) [03666B03], AccurateRip returned [F24299AC] (AR v2)Track 17 cannot be verified as accurate (confidence 5) [BDEED5D5], AccurateRip returned [A683E088] (AR v2)Track 18 cannot be verified as accurate (confidence 5) [6280F908], AccurateRip returned [95D82251] (AR v2)Track 19 cannot be verified as accurate (confidence 5) [4A382753], AccurateRip returned [BDBC9E9F] (AR v2)Track 20 cannot be verified as accurate (confidence 5) [AD20B668], AccurateRip returned [9CEF62AB] (AR v2)Track 21 cannot be verified as accurate (confidence 5) [DAF50670], AccurateRip returned [39007267] (AR v2)Track 22 cannot be verified as accurate (confidence 5) [94483E52], AccurateRip returned [20110EF1] (AR v2)Track 23 cannot be verified as accurate (confidence 5) [44D04399], AccurateRip returned [B61E0F6D] (AR v2)Track 24 cannot be verified as accurate (confidence 5) [F3052DE8], AccurateRip returned [90F39FE7] (AR v2)Track 25 cannot be verified as accurate (confidence 5) [B8B943AE], AccurateRip returned [DD81849A] (AR v2)Track 26 cannot be verified as accurate (confidence 5) [8CD790E9], AccurateRip returned [1AE2D218] (AR v2)Track 27 cannot be verified as accurate (confidence 5) [B6C517A7], AccurateRip returned [0B362E30] (AR v2)Track 28 cannot be verified as accurate (confidence 5) [CC0BD10E], AccurateRip returned [05ED1F09] (AR v2)Track 29 cannot be verified as accurate (confidence 5) [2754E246], AccurateRip returned [30AC330A] (AR v2)Track 30 cannot be verified as accurate (confidence 5) [248C5335], AccurateRip returned [811F3C8C] (AR v2)Track 31 cannot be verified as accurate (confidence 5) [BEB6D888], AccurateRip returned [B972CFE5] (AR v2)Track 32 cannot be verified as accurate (confidence 5) [88D077D4], AccurateRip returned [FFF53E3E] (AR v2)Track 33 cannot be verified as accurate (confidence 5) [18C1F713], AccurateRip returned [1FF5103B] (AR v2)Track 34 cannot be verified as accurate (confidence 5) [BFCCEADE], AccurateRip returned [CC5A23B4] (AR v2)Track 35 cannot be verified as accurate (confidence 5) [DF1A91A2], AccurateRip returned [388E6D84] (AR v2)Track 36 cannot be verified as accurate (confidence 5) [67775544], AccurateRip returned [03174E7F] (AR v2)Track 37 cannot be verified as accurate (confidence 5) [5955B54A], AccurateRip returned [A1ED9D5D] (AR v2)Track 38 cannot be verified as accurate (confidence 5) [D076F12B], AccurateRip returned [EEA54D30] (AR v2)Track 39 cannot be verified as accurate (confidence 5) [3CADFBD3], AccurateRip returned [F6DA0D2E] (AR v2)
No tracks could be verified as accurateYou may have a different pressing from the one(s) in the database
End of status report
==== Log checksum 8BF6C24CC3F5E060E7F1A34722BBA0FE87DD02BD3A4FAF3C4A7E7B639A017BE0 ====



Показать сообщения:    

Текущее время: 07-Дек 21:17

Часовой пояс: UTC + 3


Вы не можете начинать темы
Вы не можете отвечать на сообщения
Вы не можете редактировать свои сообщения
Вы не можете удалять свои сообщения
Вы не можете голосовать в опросах
Вы не можете прикреплять файлы к сообщениям
Вы не можете скачивать файлы