(Classical/Chamber) Anton Zimmermann - String Quartets Op. 3 Nos.1 - 3 (ca. 1775) - Musica Aeterna Soloists - 1994, FLAC (tracks+.cue) lossless


 

[Цитировать]

Anton Zimmermann (1741-1781) - String Quartets Op. 3 Nos.1 - 3 (ca. 1775) - Musica Aeterna Soloists
Жанр: Classical/Chamber
Страна-производитель диска: Italy
Год издания диска: 1994
Издатель (лейбл): Trevak
Номер по каталогу: TREK 4-0015
Аудиокодек: FLAC
Тип рипа: tracks+.cue
Битрейт аудио: lossless
Продолжительность: 67:39
Источник: релизер
сайт-источник/ник/другое: duckjammy
Наличие сканов в содержимом раздачи: да
Треклист:
String Quartet No. 1 in Es Major, Op. 3
1. I. Allegretto
2. II. Menuetto
3. III. Adagio
4. IV. Menuetto
5. V. Finale: Presto
String Quartet No. 2 in B Major, Op. 3
6. I. Allegretto
7. II. Menuetto
8. III. Adagio
9. IV. Menuetto
10. V. Finale: Presto
String Quartet No. 3 in F Major, Op. 3
11. I. Andante un poco adagio: Variations 1 - 4
12. II. Menuetto
13. III. Allegro
14. IV. Menuetto
15. V. Finale: Allegro non molto
Исполнители:
Musica Aeterna Soloists: Peter Zajнček, Milos Valent, violins; Jan Grener, viola; Peter Kiral, cello

Лог создания рипа

Exact Audio Copy V1.0 beta 3 from 29. August 2011
EAC extraction logfile from 13. June 2015, 12:28
Musica Aeterna Soloists / Zimmerman - String Quartets No.1 - No.3
Used drive : TSSTcorpCDDVDW SE-208DB Adapter: 1 ID: 0
Read mode : SecureUtilize accurate stream : YesDefeat audio cache : YesMake use of C2 pointers : No
Read offset correction : 6Overread into Lead-In and Lead-Out : NoFill up missing offset samples with silence : YesDelete leading and trailing silent blocks : NoNull samples used in CRC calculations : YesUsed interface : Native Win32 interface for Win NT & 2000Gap handling : Appended to previous track
Used output format : User Defined EncoderSelected bitrate : 1024 kBit/sQuality : HighAdd ID3 tag : NoCommand line compressor : C:\Program Files (x86)\Exact Audio Copy\FLAC\FLAC.EXEAdditional command line options : -8 -V -T "ARTIST=%artist%" -T "TITLE=%title%" -T "ALBUM=%albumtitle%" -T "DATE=%year%" -T "TRACKNUMBER=%tracknr%" -T "GENRE=%genre%" -T "PERFORMER=%albuminterpret%" -T "COMPOSER=%composer%" %haslyrics%--tag-from-file=LYRICS="%lyricsfile%"%haslyrics% -T "ALBUMARTIST=%albumartist%" -T "DISCNUMBER=%cdnumber%" -T "TOTALDISCS=%totalcds%" -T "TOTALTRACKS=%numduckjammytracks%" -T "COMMENT=%comment%" %source% -o %dest%
TOC of the extracted CD
Track | Start | Length | Start sector | End sector --------------------------------------------------------- 1 | 0:00.00 | 5:33.40 | 0 | 25014 2 | 5:33.40 | 4:40.17 | 25015 | 46031 3 | 10:13.57 | 5:26.68 | 46032 | 70549 4 | 15:40.50 | 4:15.70 | 70550 | 89744 5 | 19:56.45 | 4:16.12 | 89745 | 108956 6 | 24:12.57 | 6:59.63 | 108957 | 140444 7 | 31:12.45 | 3:58.05 | 140445 | 158299 8 | 35:10.50 | 3:47.02 | 158300 | 175326 9 | 38:57.52 | 4:50.73 | 175327 | 197149 10 | 43:48.50 | 2:52.72 | 197150 | 210121 11 | 46:41.47 | 5:42.03 | 210122 | 235774 12 | 52:23.50 | 3:56.67 | 235775 | 253541 13 | 56:20.42 | 4:04.00 | 253542 | 271841 14 | 60:24.42 | 4:14.08 | 271842 | 290899 15 | 64:38.50 | 3:01.25 | 290900 | 304499
Track 1
Filename C:\E\01 - String Quartet No.1 in E-flat, Op.3 No.1 (i - Allegretto).wav
Pre-gap length 0:00:02.00
Peak level 89.5 % Extraction speed 2.5 X Track quality 100.0 % Test CRC 2EEF5254 Copy CRC 2EEF5254 Track not present in AccurateRip database Copy OK
Track 2
Filename C:\E\02 - String Quartet No.1 in E-flat, Op.3 No.1 (ii - Menuetto).wav
Pre-gap length 0:00:02.00
Peak level 69.2 % Extraction speed 3.1 X Track quality 100.0 % Test CRC 72E01FD0 Copy CRC 72E01FD0 Track not present in AccurateRip database Copy OK
Track 3
Filename C:\E\03 - String Quartet No.1 in E-flat, Op.3 No.1 (iii - Adagio).wav
Pre-gap length 0:00:02.00
Peak level 61.7 % Extraction speed 3.3 X Track quality 100.0 % Test CRC F4028652 Copy CRC F4028652 Track not present in AccurateRip database Copy OK
Track 4
Filename C:\E\04 - String Quartet No.1 in E-flat, Op.3 No.1 (iv - Menuetto).wav
Pre-gap length 0:00:02.00
Peak level 78.4 % Extraction speed 2.6 X Track quality 99.9 % Test CRC 4770C80C Copy CRC 4770C80C Track not present in AccurateRip database Copy OK
Track 5
Filename C:\E\05 - String Quartet No.1 in E-flat, Op.3 No.1 (v - Finale- Presto).wav
Pre-gap length 0:00:01.00
Peak level 84.5 % Extraction speed 3.6 X Track quality 100.0 % Test CRC 0A2DD495 Copy CRC 0A2DD495 Track not present in AccurateRip database Copy OK
Track 6
Filename C:\E\06 - String Quartet No.2 in B, Op.3 No.2 (i - Allegretto).wav
Pre-gap length 0:00:05.26
Peak level 91.8 % Extraction speed 3.8 X Track quality 100.0 % Test CRC 78F6A789 Copy CRC 78F6A789 Track not present in AccurateRip database Copy OK
Track 7
Filename C:\E\07 - String Quartet No.2 in B, Op.3 No.2 (ii - Menuetto).wav
Pre-gap length 0:00:01.00
Peak level 60.7 % Extraction speed 3.1 X Track quality 99.9 % Test CRC 05290F7E Copy CRC 05290F7E Track not present in AccurateRip database Copy OK
Track 8
Filename C:\E\08 - String Quartet No.2 in B, Op.3 No.2 (iii - Adagio).wav
Pre-gap length 0:00:01.00
Peak level 40.4 % Extraction speed 3.9 X Track quality 100.0 % Test CRC 431BBAA1 Copy CRC 431BBAA1 Track not present in AccurateRip database Copy OK
Track 9
Filename C:\E\09 - String Quartet No.2 in B, Op.3 No.2 (iv - Menuetto).wav
Pre-gap length 0:00:01.98
Peak level 65.7 % Extraction speed 3.9 X Track quality 100.0 % Test CRC FC8AB559 Copy CRC FC8AB559 Track not present in AccurateRip database Copy OK
Track 10
Filename C:\E\10 - String Quartet No.2 in B, Op.3 No.2 (v - Finale- Presto).wav
Pre-gap length 0:00:01.00
Peak level 90.9 % Extraction speed 3.1 X Track quality 99.9 % Test CRC C5A141B8 Copy CRC C5A141B8 Track not present in AccurateRip database Copy OK
Track 11
Filename C:\E\11 - String Quartet No.3 in F, Op.3 No.3 (i - Andante un poco adagio- Varaiations 1-4).wav
Pre-gap length 0:00:04.00
Peak level 88.3 % Extraction speed 3.9 X Track quality 100.0 % Test CRC 22AEA7DF Copy CRC 22AEA7DF Track not present in AccurateRip database Copy OK
Track 12
Filename C:\E\12 - String Quartet No.3 in F, Op.3 No.3 (ii - Menuetto).wav
Pre-gap length 0:00:02.00
Peak level 88.1 % Extraction speed 4.4 X Track quality 100.0 % Test CRC D2883A29 Copy CRC D2883A29 Track not present in AccurateRip database Copy OK
Track 13
Filename C:\E\13 - String Quartet No.3 in F, Op.3 No.3 (iii - Allegro).wav
Pre-gap length 0:00:01.00
Peak level 91.0 % Extraction speed 3.4 X Track quality 99.9 % Test CRC 82A33B8C Copy CRC 82A33B8C Track not present in AccurateRip database Copy OK
Track 14
Filename C:\E\14 - String Quartet No.3 in F, Op.3 No.3 (iv - Menuetto).wav
Pre-gap length 0:00:01.00
Peak level 77.2 % Extraction speed 4.4 X Track quality 100.0 % Test CRC 9A61F950 Copy CRC 9A61F950 Track not present in AccurateRip database Copy OK
Track 15
Filename C:\E\15 - String Quartet No.3 in F, Op.3 No.3 (v - Finale- Allegro non molto).wav
Pre-gap length 0:00:01.00
Peak level 89.4 % Extraction speed 4.5 X Track quality 100.0 % Test CRC 0325CB57 Copy CRC 0325CB57 Track not present in AccurateRip database Copy OK
None of the tracks are present in the AccurateRip database
No errors occurred
End of status report
==== Log checksum A9533DD77504A61A4732924B35FF23AAB685D33843EDC3EEBE4C8D6ABECB7A02 ====

Содержание индексной карты (.CUE)

REM GENRE "Chamber Music"REM DATE 1994REM DISCID CD0FDC0FREM COMMENT "ExactAudioCopy v1.0b3"CATALOG 0000000000000PERFORMER "Musica Aeterna Soloists"TITLE "Zimmerman - String Quartets No.1 - No.3"FILE "01 - String Quartet No.1 in E-flat, Op.3 No.1 (i - Allegretto).flac" WAVE TRACK 01 AUDIO TITLE "String Quartet No.1 in E-flat, Op.3 No.1 (i - Allegretto)" PERFORMER "Musica Aeterna Soloists" INDEX 01 00:00:00FILE "02 - String Quartet No.1 in E-flat, Op.3 No.1 (ii - Menuetto).flac" WAVE TRACK 02 AUDIO TITLE "String Quartet No.1 in E-flat, Op.3 No.1 (ii - Menuetto)" PERFORMER "Musica Aeterna Soloists" INDEX 01 00:00:00FILE "03 - String Quartet No.1 in E-flat, Op.3 No.1 (iii - Adagio).flac" WAVE TRACK 03 AUDIO TITLE "String Quartet No.1 in E-flat, Op.3 No.1 (iii - Adagio)" PERFORMER "Musica Aeterna Soloists" INDEX 01 00:00:00FILE "04 - String Quartet No.1 in E-flat, Op.3 No.1 (iv - Menuetto).flac" WAVE TRACK 04 AUDIO TITLE "String Quartet No.1 in E-flat, Op.3 No.1 (iv - Menuetto)" PERFORMER "Musica Aeterna Soloists" INDEX 01 00:00:00FILE "05 - String Quartet No.1 in E-flat, Op.3 No.1 (v - Finale- Presto).flac" WAVE TRACK 05 AUDIO TITLE "String Quartet No.1 in E-flat, Op.3 No.1 (v - Finale: Presto)" PERFORMER "Musica Aeterna Soloists" INDEX 01 00:00:00FILE "06 - String Quartet No.2 in B, Op.3 No.2 (i - Allegretto).flac" WAVE TRACK 06 AUDIO TITLE "String Quartet No.2 in B, Op.3 No.2 (i - Allegretto)" PERFORMER "Musica Aeterna Soloists" INDEX 01 00:00:00FILE "07 - String Quartet No.2 in B, Op.3 No.2 (ii - Menuetto).flac" WAVE TRACK 07 AUDIO TITLE "String Quartet No.2 in B, Op.3 No.2 (ii - Menuetto)" PERFORMER "Musica Aeterna Soloists" INDEX 01 00:00:00FILE "08 - String Quartet No.2 in B, Op.3 No.2 (iii - Adagio).flac" WAVE TRACK 08 AUDIO TITLE "String Quartet No.2 in B, Op.3 No.2 (iii - Adagio)" PERFORMER "Musica Aeterna Soloists" INDEX 01 00:00:00FILE "09 - String Quartet No.2 in B, Op.3 No.2 (iv - Menuetto).flac" WAVE TRACK 09 AUDIO TITLE "String Quartet No.2 in B, Op.3 No.2 (iv - Menuetto)" PERFORMER "Musica Aeterna Soloists" INDEX 01 00:00:00FILE "10 - String Quartet No.2 in B, Op.3 No.2 (v - Finale- Presto).flac" WAVE TRACK 10 AUDIO TITLE "String Quartet No.2 in B, Op.3 No.2 (v - Finale: Presto)" PERFORMER "Musica Aeterna Soloists" INDEX 01 00:00:00FILE "11 - String Quartet No.3 in F, Op.3 No.3 (i - Andante un poco adagio- Varaiations 1-4).flac" WAVE TRACK 11 AUDIO TITLE "String Quartet No.3 in F, Op.3 No.3 (i - Andante un poco adagio: Varaiations ..." PERFORMER "Musica Aeterna Soloists" INDEX 01 00:00:00FILE "12 - String Quartet No.3 in F, Op.3 No.3 (ii - Menuetto).flac" WAVE TRACK 12 AUDIO TITLE "String Quartet No.3 in F, Op.3 No.3 (ii - Menuetto)" PERFORMER "Musica Aeterna Soloists" INDEX 01 00:00:00FILE "13 - String Quartet No.3 in F, Op.3 No.3 (iii - Allegro).flac" WAVE TRACK 13 AUDIO TITLE "String Quartet No.3 in F, Op.3 No.3 (iii - Allegro)" PERFORMER "Musica Aeterna Soloists" INDEX 01 00:00:00FILE "14 - String Quartet No.3 in F, Op.3 No.3 (iv - Menuetto).flac" WAVE TRACK 14 AUDIO TITLE "String Quartet No.3 in F, Op.3 No.3 (iv - Menuetto)" PERFORMER "Musica Aeterna Soloists" INDEX 01 00:00:00FILE "15 - String Quartet No.3 in F, Op.3 No.3 (v - Finale- Allegro non molto).flac" WAVE TRACK 15 AUDIO TITLE "String Quartet No.3 in F, Op.3 No.3 (v - Finale: Allegro non molto)" PERFORMER "Musica Aeterna Soloists" INDEX 01 00:00:00



Показать сообщения:    

Текущее время: 07-Дек 21:23

Часовой пояс: UTC + 3


Вы не можете начинать темы
Вы не можете отвечать на сообщения
Вы не можете редактировать свои сообщения
Вы не можете удалять свои сообщения
Вы не можете голосовать в опросах
Вы не можете прикреплять файлы к сообщениям
Вы не можете скачивать файлы