(Classical) Francesco Veracini - Overtures & Concerti Vol. 1 - L\'Arte dell\'Arco, Federico Guglielmo - 2009, FLAC (image+.cue) lossless


 

[Цитировать]

Francesco Maria Veracini- -Жанр: Classical || Страна-производитель диска: Germany || Издатель (лейбл): Classic Produktion Osnabrück
Каталог №: cpo 777 302-2 || Дата записи: 2005-11-8, 9, 10 || Год издания: 2009 || Кодек: FLAC (*.flac) || Битрейт: lossless
Тип рипа: image+.cue || Продолжительность: 59:26 || Источник (релизер): Original CD || Наличие сканов в содержимом раздачи: да
-Overtures & Concerti Vol. 1:
-
-

2009 - Overtures & Concerti Vol. 1

Overture VI in G minor:
1 Allegro 03:34
2 Largo 02:17
3 Allegro 02:48
4 Menuet. Allegro 01:52
Sonata VI in A minor:
5 Largo 01:36
6 Allegro 02:35
7 Allegro-Adagio-Allegro 01:36
8 Allegro 03:00
Violin Concerto in A major:
9 Allegro 03:50
10 Grave 02:24
11 Allegro 02:53
Sonata VII in A major:
12 Cantabile 01:41
13 Larghetto-Adagio 02:10
14 Allegro-Adagio-Allegro 02:51
15 Largo 02:07
16 Allegro 02:03
Overture II in F major:
17 Largo-Allegro-Largo-Allegro 03:37
18 Gavotte. Allegro 04:15
19 Sarabande. Lento 02:25
20 Menuet. Allegro 03:42
21 Gigue. Allegro 03:36
22 Menuet. Allegro 02:33-Продолжительность: 59:26-

-

Лог создания рипа

Exact Audio Copy V1.0 beta 6 from 9. April 2015
EAC extraction logfile from 8. June 2015, 17:35
L'Arte dell'Arco, Federico Guglielmo / Overtures & Concerti Vol. 1
Used drive : ASUS DRW-22B2L b Adapter: 1 ID: 1
Read mode : SecureUtilize accurate stream : YesDefeat audio cache : YesMake use of C2 pointers : No
Read offset correction : 6Overread into Lead-In and Lead-Out : NoFill up missing offset samples with silence : YesDelete leading and trailing silent blocks : NoNull samples used in CRC calculations : YesUsed interface : Native Win32 interface for Win NT & 2000
Used output format : User Defined EncoderSelected bitrate : 128 kBit/sQuality : HighAdd ID3 tag : NoCommand line compressor : C:\Program Files\Exact Audio Copy\Flac\flac.exeAdditional command line options : -V -8 -T "Date=%year%" -T "Genre=%genre%" -T "Composer=%composer%" %source%
TOC of the extracted CD
Track | Start | Length | Start sector | End sector --------------------------------------------------------- 1 | 0:00.00 | 3:33.63 | 0 | 16037 2 | 3:33.63 | 2:17.35 | 16038 | 26347 3 | 5:51.23 | 2:48.36 | 26348 | 38983 4 | 8:39.59 | 1:52.19 | 38984 | 47402 5 | 10:32.03 | 1:36.15 | 47403 | 54617 6 | 12:08.18 | 2:35.13 | 54618 | 66255 7 | 14:43.31 | 1:36.02 | 66256 | 73457 8 | 16:19.33 | 3:00.18 | 73458 | 86975 9 | 19:19.51 | 3:50.12 | 86976 | 104237 10 | 23:09.63 | 2:23.48 | 104238 | 115010 11 | 25:33.36 | 2:53.27 | 115011 | 128012 12 | 28:26.63 | 1:40.40 | 128013 | 135552 13 | 30:07.28 | 2:09.69 | 135553 | 145296 14 | 32:17.22 | 2:51.25 | 145297 | 158146 15 | 35:08.47 | 2:06.70 | 158147 | 167666 16 | 37:15.42 | 2:03.20 | 167667 | 176911 17 | 39:18.62 | 3:36.41 | 176912 | 193152 18 | 42:55.28 | 4:14.41 | 193153 | 212243 19 | 47:09.69 | 2:24.65 | 212244 | 223108 20 | 49:34.59 | 3:42.30 | 223109 | 239788 21 | 53:17.14 | 3:36.11 | 239789 | 255999 22 | 56:53.25 | 2:32.50 | 256000 | 267449
Range status and errors
Selected range
Filename C:\1st0m1n\!!! Dedykuję Najpiękniejszej Polce na Całym Bezbrzeżnym Świecie !!!\L'Arte dell'Arco, Federico Guglielmo - Overtures & Concerti Vol. 1.wav
Peak level 99.8 % Extraction speed 8.2 X Range quality 99.9 % Test CRC A3A7DC24 Copy CRC A3A7DC24 Copy OK
No errors occurred
AccurateRip summary
Track 1 accurately ripped (confidence 3) [4E89AD47] (AR v2)Track 2 accurately ripped (confidence 3) [1F231549] (AR v2)Track 3 accurately ripped (confidence 3) [B084023C] (AR v2)Track 4 accurately ripped (confidence 3) [B59DD889] (AR v2)Track 5 accurately ripped (confidence 3) [56E57C2C] (AR v2)Track 6 accurately ripped (confidence 3) [5F2AAEFF] (AR v2)Track 7 accurately ripped (confidence 3) [9964DCAB] (AR v2)Track 8 accurately ripped (confidence 3) [3FE9F577] (AR v2)Track 9 accurately ripped (confidence 3) [A4A970DA] (AR v2)Track 10 accurately ripped (confidence 3) [138AC388] (AR v2)Track 11 accurately ripped (confidence 3) [1C9FDFB1] (AR v2)Track 12 accurately ripped (confidence 3) [C36588EC] (AR v2)Track 13 accurately ripped (confidence 3) [90305C33] (AR v2)Track 14 accurately ripped (confidence 3) [DCFAC0A6] (AR v2)Track 15 accurately ripped (confidence 3) [BEEA184A] (AR v2)Track 16 accurately ripped (confidence 3) [212EDC2C] (AR v2)Track 17 accurately ripped (confidence 3) [910775C7] (AR v2)Track 18 accurately ripped (confidence 3) [075F9641] (AR v2)Track 19 accurately ripped (confidence 3) [9EF097CF] (AR v2)Track 20 accurately ripped (confidence 3) [06A16E20] (AR v2)Track 21 accurately ripped (confidence 3) [D82E0519] (AR v2)Track 22 accurately ripped (confidence 3) [C0415381] (AR v2)
All tracks accurately ripped
End of status report
---- CUETools DB Plugin V2.1.6
[CTDB TOCID: IFbR.MbWKn06qtfQo_vgz4QiMkM-] foundSubmit result: IFbR.MbWKn06qtfQo_vgz4QiMkM- has been confirmedTrack | CTDB Status 1 | (2/2) Accurately ripped 2 | (2/2) Accurately ripped 3 | (2/2) Accurately ripped 4 | (2/2) Accurately ripped 5 | (2/2) Accurately ripped 6 | (2/2) Accurately ripped 7 | (2/2) Accurately ripped 8 | (2/2) Accurately ripped 9 | (2/2) Accurately ripped 10 | (2/2) Accurately ripped 11 | (2/2) Accurately ripped 12 | (2/2) Accurately ripped 13 | (2/2) Accurately ripped 14 | (2/2) Accurately ripped 15 | (2/2) Accurately ripped 16 | (2/2) Accurately ripped 17 | (2/2) Accurately ripped 18 | (2/2) Accurately ripped 19 | (2/2) Accurately ripped 20 | (2/2) Accurately ripped 21 | (2/2) Accurately ripped 22 | (2/2) Accurately ripped
==== Log checksum F111F60D8E314FA3E6C3A586BC1C3AB2180371625D0C13527827C1E0B024E062 ====

-

Исполнитель

L'Arte dell'Arco on Original Instruments
Federico Guglielmo, Solo Violin & Direction.-L'Arte dell'Arco:
Violin I
Federico Guglielmo, Carlo Lazari, Valentina Violante, Marco Piantoni
Violin II
Giovanni Guglielmo, Stefano Zanchetta, Elisa Imbalzano, Alessia Turri
Viola
Mario Paladin, Meri Skejic
Cello
Francesco Montaruli
Violone
Massimiliano Mauthe von Degerfeld
Theorbo
Pietro Prosser, Ivano Zanenghi
Harpsichord
Nicola Reniero
Oboe
Marco Cera, Mark Radcliffe
Basson
Andrea Bressan-
-



Показать сообщения:    

Текущее время: 09-Дек 18:35

Часовой пояс: UTC + 3


Вы не можете начинать темы
Вы не можете отвечать на сообщения
Вы не можете редактировать свои сообщения
Вы не можете удалять свои сообщения
Вы не можете голосовать в опросах
Вы не можете прикреплять файлы к сообщениям
Вы не можете скачивать файлы