(Classical, Cello) Julian Lloyd Webber, English Chamber Orchestra - And the Bridge Is Love (Elgar, Goodall, Delius, Walton, Ireland) - 2015, FLAC (tracks+.cue), lossless


 

[Цитировать]

Julian Lloyd Webber - And the Bridge Is Love
Жанр: Classical, Cello
Страна-производитель диска: Германия
Год издания диска: 2015
Издатель (лейбл): Naxos
Номер по каталогу: 8.573250
Аудиокодек: FLAC
Тип рипа: tracks+.cue
Битрейт аудио: lossless
Продолжительность: 1:10:05
Источник (релизер): lynnman (what)
Наличие сканов в содержимом раздачи: да
Треклист:
Edward Elgar (1857-1934)
01. Introduction and Allegro for Strings, Op.47 (14:01)
02. Sospiri, Op.70 (5:11)
William Lloyd Webber (1914-1982)
03. The Moon (4:32)
Howard Goodall (b. 1958)
04. And the Bridge Is Love (11:37)
Ralph Vaughan Williams (1872-1958)
05. The Charterhouse Suite: No.1 Prelude (1:42)
Edward Elgar
Serenade for Strings, Op.20
06. I. Allegro piacevole (3:31)
07. II. Larghetto (5:17)
08. III. Allegretto - Come prima (2:51)
Frederick Delius (1862-1934)
Two Aquarelles
09. No.1: Lento, ma non troppo (2:03)
10. No.2: Gaily, but not quick (1:55)
Edward Elgar
11. Chanson de nuit, Op.15 No.1 (4:29)
12. Chanson de matin, Op.15 No.2 (3:15)
William Walton (1902-1983)
Two Pieces for Strings from Henry V
13. Passacaglia: Death of Falstaff (3:08)
14. "Touch Her Soft Lips and Part" (1:46)
John Ireland (1879-1962)
15. A Downland Suite: No.3 Minuet (4:47)
Исполнители:
Julian Lloyd Webber - cello, conductor
English Chamber Orchestra
Recorded at Watford Colosseum, Watford, Hertfordshire, UK on April 22-24, 2014.

Лог создания рипа

Exact Audio Copy V1.0 beta 3 from 29. August 2011
EAC extraction logfile from 25. April 2015, 15:49
English Chamber Orchestra, Julian Lloyd Webber / And The Bridge Is Love
Used drive : ATAPI iHOS104 Adapter: 4 ID: 0
Read mode : SecureUtilize accurate stream : YesDefeat audio cache : YesMake use of C2 pointers : No
Read offset correction : 696Overread into Lead-In and Lead-Out : NoFill up missing offset samples with silence : YesDelete leading and trailing silent blocks : NoNull samples used in CRC calculations : YesUsed interface : Native Win32 interface for Win NT & 2000Gap handling : Appended to previous track
Used output format : User Defined EncoderSelected bitrate : 1024 kBit/sQuality : HighAdd ID3 tag : NoCommand line compressor : C:\Program Files (x86)\Exact Audio Copy\Flac\flac.exeAdditional command line options : -8 -V -T "ARTIST=%artist%" -T "TITLE=%title%" -T "ALBUM=%albumtitle%" -T "DATE=%year%" -T "TRACKNUMBER=%tracknr%" -T "GENRE=%genre%" -T "PERFORMER=%albuminterpret%" -T "COMPOSER=%composer%" %haslyrics%--tag-from-file=LYRICS="%lyricsfile%"%haslyrics% -T "ALBUMARTIST=%albumartist%" -T "DISCNUMBER=%cdnumber%" -T "TOTALDISCS=%totalcds%" -T "TOTALTRACKS=%numtracks%" -T "COMMENT=%comment%" %source% -o %dest%
TOC of the extracted CD
Track | Start | Length | Start sector | End sector --------------------------------------------------------- 1 | 0:00.00 | 14:00.44 | 0 | 63043 2 | 14:00.44 | 5:10.41 | 63044 | 86334 3 | 19:11.10 | 4:31.64 | 86335 | 106723 4 | 23:42.74 | 11:36.72 | 106724 | 158995 5 | 35:19.71 | 1:41.56 | 158996 | 166626 6 | 37:01.52 | 3:30.50 | 166627 | 182426 7 | 40:32.27 | 5:17.02 | 182427 | 206203 8 | 45:49.29 | 2:51.09 | 206204 | 219037 9 | 48:40.38 | 2:03.23 | 219038 | 228285 10 | 50:43.61 | 1:55.19 | 228286 | 236929 11 | 52:39.05 | 4:28.50 | 236930 | 257079 12 | 57:07.55 | 3:15.36 | 257080 | 271740 13 | 60:23.16 | 3:07.66 | 271741 | 285831 14 | 63:31.07 | 1:46.36 | 285832 | 293817 15 | 65:17.43 | 4:47.32 | 293818 | 315374
Track 1
Filename F:\EAC Rips F\Julian Lloyd Webber And The Bridge Is Love [FLAC]\01 - Introduction and Allegro for Strings, Op. 45.wav
Pre-gap length 0:00:02.00
Peak level 99.9 % Extraction speed 1.5 X Track quality 99.9 % Test CRC 854795DF Copy CRC 854795DF Accurately ripped (confidence 2) [1CEC5C7E] (AR v2) Copy OK
Track 2
Filename F:\EAC Rips F\Julian Lloyd Webber And The Bridge Is Love [FLAC]\02 - Sospiri, Op. 70.wav
Pre-gap length 0:00:04.56
Peak level 96.6 % Extraction speed 1.8 X Track quality 100.0 % Test CRC 79F686E1 Copy CRC 79F686E1 Accurately ripped (confidence 2) [6FE387AC] (AR v2) Copy OK
Track 3
Filename F:\EAC Rips F\Julian Lloyd Webber And The Bridge Is Love [FLAC]\03 - The Moon.wav
Pre-gap length 0:00:05.04
Peak level 85.4 % Extraction speed 1.9 X Track quality 100.0 % Test CRC F0C6D70B Copy CRC F0C6D70B Accurately ripped (confidence 2) [102D0F01] (AR v2) Copy OK
Track 4
Filename F:\EAC Rips F\Julian Lloyd Webber And The Bridge Is Love [FLAC]\04 - And the Bridge is Love.wav
Pre-gap length 0:00:05.92
Peak level 84.0 % Extraction speed 2.2 X Track quality 100.0 % Test CRC 12C8CBC2 Copy CRC 12C8CBC2 Accurately ripped (confidence 2) [5EF31481] (AR v2) Copy OK
Track 5
Filename F:\EAC Rips F\Julian Lloyd Webber And The Bridge Is Love [FLAC]\05 - The Charterhouse Suite - No. 1 Prelude.wav
Pre-gap length 0:00:03.17
Peak level 85.7 % Extraction speed 1.8 X Track quality 100.0 % Test CRC 432996EE Copy CRC 432996EE Accurately ripped (confidence 2) [1BB53A1B] (AR v2) Copy OK
Track 6
Filename F:\EAC Rips F\Julian Lloyd Webber And The Bridge Is Love [FLAC]\06 - Serenade for Strings, Op. 20 - I. Allegro piacevole.wav
Pre-gap length 0:00:06.53
Peak level 84.1 % Extraction speed 2.1 X Track quality 100.0 % Test CRC 7FA00367 Copy CRC 7FA00367 Accurately ripped (confidence 2) [A11CEEE9] (AR v2) Copy OK
Track 7
Filename F:\EAC Rips F\Julian Lloyd Webber And The Bridge Is Love [FLAC]\07 - Serenade for Strings, Op. 20 - II. Larghetto.wav
Peak level 60.6 % Extraction speed 1.7 X Track quality 99.9 % Test CRC B1273CB7 Copy CRC B1273CB7 Accurately ripped (confidence 2) [170C0BDF] (AR v2) Copy OK
Track 8
Filename F:\EAC Rips F\Julian Lloyd Webber And The Bridge Is Love [FLAC]\08 - Serenade for Strings, Op. 20 - III. Allegretto - Come prima.wav
Pre-gap length 0:00:01.89
Peak level 69.5 % Extraction speed 2.2 X Track quality 100.0 % Test CRC BA7ADA89 Copy CRC BA7ADA89 Accurately ripped (confidence 2) [10E74F26] (AR v2) Copy OK
Track 9
Filename F:\EAC Rips F\Julian Lloyd Webber And The Bridge Is Love [FLAC]\09 - Two Aquarelles No. 1.wav
Pre-gap length 0:00:06.38
Peak level 58.0 % Extraction speed 2.1 X Track quality 100.0 % Test CRC 59C4C5D7 Copy CRC 59C4C5D7 Accurately ripped (confidence 2) [EC81D8BD] (AR v2) Copy OK
Track 10
Filename F:\EAC Rips F\Julian Lloyd Webber And The Bridge Is Love [FLAC]\10 - Two Aquarelles No. 2.wav
Peak level 58.7 % Extraction speed 2.1 X Track quality 100.0 % Test CRC 4AB47942 Copy CRC 4AB47942 Accurately ripped (confidence 2) [A73778C3] (AR v2) Copy OK
Track 11
Filename F:\EAC Rips F\Julian Lloyd Webber And The Bridge Is Love [FLAC]\11 - Chanson de nuit, Op. 15 No. 1.wav
Pre-gap length 0:00:06.28
Peak level 73.8 % Extraction speed 2.5 X Track quality 100.0 % Test CRC BBB25966 Copy CRC BBB25966 Accurately ripped (confidence 2) [EA4BD4B0] (AR v2) Copy OK
Track 12
Filename F:\EAC Rips F\Julian Lloyd Webber And The Bridge Is Love [FLAC]\12 - Chanson de matin, Op. 15 No. 2.wav
Pre-gap length 0:00:01.13
Peak level 90.4 % Extraction speed 2.5 X Track quality 100.0 % Test CRC E653F911 Copy CRC E653F911 Accurately ripped (confidence 2) [56BDA471] (AR v2) Copy OK
Track 13
Filename F:\EAC Rips F\Julian Lloyd Webber And The Bridge Is Love [FLAC]\13 - Two Pieces for Strings from Henry V - Death of Falstaff.wav
Pre-gap length 0:00:07.49
Peak level 40.4 % Extraction speed 1.5 X Track quality 99.9 % Test CRC 589BFA40 Copy CRC 589BFA40 Accurately ripped (confidence 2) [E4019E77] (AR v2) Copy OK
Track 14
Filename F:\EAC Rips F\Julian Lloyd Webber And The Bridge Is Love [FLAC]\14 - Two Pieces for Strings from Henry V - Touch her soft lips and part.wav
Peak level 39.4 % Extraction speed 2.3 X Track quality 100.0 % Test CRC 51F13F38 Copy CRC 51F13F38 Accurately ripped (confidence 2) [7F1AD4E5] (AR v2) Copy OK
Track 15
Filename F:\EAC Rips F\Julian Lloyd Webber And The Bridge Is Love [FLAC]\15 - A Downland Suite - No. 3 Minuet.wav
Pre-gap length 0:00:06.94
Peak level 66.2 % Extraction speed 2.7 X Track quality 100.0 % Test CRC C6A57A87 Copy CRC C6A57A87 Accurately ripped (confidence 2) [CDF90766] (AR v2) Copy OK
All tracks accurately ripped
No errors occurred
End of status report
==== Log checksum 0422F572BA72B8E402F9FF2824E3E1A73FF95B81382D82B8D0ABB4DA33385F0E ====

Содержание индексной карты (.CUE)

REM GENRE ClassicalREM DATE 2015REM DISCID BD106D0FREM COMMENT "ExactAudioCopy v1.0b3"CATALOG 7473133250780PERFORMER "Julian Lloyd Webber"TITLE "And the Bridge Is Love"FILE "01 - Elgar- Introduction and Allegro for Strings, Op.47.wav" WAVE TRACK 01 AUDIO TITLE "Elgar: Introduction and Allegro for Strings, Op.47" PERFORMER "Julian Lloyd Webber" ISRC HKI191422101 INDEX 01 00:00:00 TRACK 02 AUDIO TITLE "Elgar: Sospiri, Op.70" PERFORMER "Julian Lloyd Webber" ISRC HKI191422102 INDEX 00 13:56:02FILE "02 - Elgar- Sospiri, Op.70.wav" WAVE INDEX 01 00:00:00 TRACK 03 AUDIO TITLE "W.L. Webber: The Moon" PERFORMER "Julian Lloyd Webber" ISRC HKI191422103 INDEX 00 05:05:38FILE "03 - W.L. Webber- The Moon.wav" WAVE INDEX 01 00:00:00 TRACK 04 AUDIO TITLE "Goodall: And the Bridge Is Love" PERFORMER "Julian Lloyd Webber" ISRC HKI191422104 INDEX 00 04:25:70FILE "04 - Goodall- And the Bridge Is Love.wav" WAVE INDEX 01 00:00:00 TRACK 05 AUDIO TITLE "R.V. Williams: The Charterhouse Suite: No.1 Prelude" PERFORMER "Julian Lloyd Webber" ISRC HKI191422105 INDEX 00 11:33:59FILE "05 - R.V. Williams- The Charterhouse Suite- No.1 Prelude.wav" WAVE INDEX 01 00:00:00 TRACK 06 AUDIO TITLE "Elgar: Serenade for Strings, Op.20: I. Allegro piacevole" PERFORMER "Julian Lloyd Webber" ISRC HKI191422106 INDEX 00 01:35:16FILE "06 - Elgar- Serenade for Strings, Op.20- I. Allegro piacevole.wav" WAVE INDEX 01 00:00:00FILE "07 - Elgar- Serenade for Strings, Op.20- II. Larghetto.wav" WAVE TRACK 07 AUDIO TITLE "Elgar: Serenade for Strings, Op.20: II. Larghetto" PERFORMER "Julian Lloyd Webber" ISRC HKI191422107 INDEX 01 00:00:00 TRACK 08 AUDIO TITLE "Elgar: Serenade for Strings, Op.20: III. Allegretto - Come prima" PERFORMER "Julian Lloyd Webber" ISRC HKI191422108 INDEX 00 05:15:10FILE "08 - Elgar- Serenade for Strings, Op.20- III. Allegretto - Come prima.wav" WAVE INDEX 01 00:00:00 TRACK 09 AUDIO TITLE "Delius: Two Aquarelles: No.1: Lento, ma non troppo" PERFORMER "Julian Lloyd Webber" ISRC HKI191422109 INDEX 00 02:44:55FILE "09 - Delius- Two Aquarelles- No.1- Lento, ma non troppo.wav" WAVE INDEX 01 00:00:00FILE "10 - Delius- Two Aquarelles- No.2- Gaily, but not quick.wav" WAVE TRACK 10 AUDIO TITLE "Delius: Two Aquarelles: No.2: Gaily, but not quick" PERFORMER "Julian Lloyd Webber" ISRC HKI191422110 INDEX 01 00:00:00 TRACK 11 AUDIO TITLE "Elgar: Chanson de nuit, Op.15 No.1" PERFORMER "Julian Lloyd Webber" ISRC HKI191422111 INDEX 00 01:48:73FILE "11 - Elgar- Chanson de nuit, Op.15 No.1.wav" WAVE INDEX 01 00:00:00 TRACK 12 AUDIO TITLE "Elgar: Chanson de matin, Op.15 No.2" PERFORMER "Julian Lloyd Webber" ISRC HKI191422112 INDEX 00 04:27:40FILE "12 - Elgar- Chanson de matin, Op.15 No.2.wav" WAVE INDEX 01 00:00:00 TRACK 13 AUDIO TITLE "Walton: Two Pieces for Strings from Henry V: Passacaglia: Death of Falstaff" PERFORMER "Julian Lloyd Webber" ISRC HKI191422113 INDEX 00 03:07:74FILE "13 - Walton- Two Pieces for Strings from Henry V- Passacaglia- Death of Falstaff.wav" WAVE INDEX 01 00:00:00FILE "14 - Walton- Two Pieces for Strings from Henry V- Touch Her Soft Lips and Part.wav" WAVE TRACK 14 AUDIO TITLE "Walton: Two Pieces for Strings from Henry V: Touch Her Soft Lips and Part" PERFORMER "Julian Lloyd Webber" ISRC HKI191422114 INDEX 01 00:00:00 TRACK 15 AUDIO TITLE "Ireland: A Downland Suite: No.3 Minuet" PERFORMER "Julian Lloyd Webber" ISRC HKI191422115 INDEX 00 01:39:40FILE "15 - Ireland- A Downland Suite- No.3 Minuet.wav" WAVE INDEX 01 00:00:00

Отчет CUETools

[CUETools log; Date: 08.06.2015 21:28:13; Version: 2.1.5][CTDB TOCID: bSPmA_l_4xOT6jCKVKWFKA6phDc-] found.Track | CTDB Status 1 | (2/2) Accurately ripped 2 | (2/2) Accurately ripped 3 | (2/2) Accurately ripped 4 | (2/2) Accurately ripped 5 | (2/2) Accurately ripped 6 | (2/2) Accurately ripped 7 | (2/2) Accurately ripped 8 | (2/2) Accurately ripped 9 | (2/2) Accurately ripped 10 | (2/2) Accurately ripped 11 | (2/2) Accurately ripped 12 | (2/2) Accurately ripped 13 | (2/2) Accurately ripped 14 | (2/2) Accurately ripped 15 | (2/2) Accurately ripped[AccurateRip ID: 002ef939-01ef6578-bd106d0f] found.Track [ CRC | V2 ] Status 01 [5080e86a|1cec5c7e] (0+2/2) Accurately ripped 02 [9e455a6b|6fe387ac] (0+2/2) Accurately ripped 03 [d90e0f09|102d0f01] (0+2/2) Accurately ripped 04 [52e186be|5ef31481] (0+2/2) Accurately ripped 05 [09982787|1bb53a1b] (0+2/2) Accurately ripped 06 [76ebccce|a11ceee9] (0+2/2) Accurately ripped 07 [404910f9|170c0bdf] (0+2/2) Accurately ripped 08 [7fef24fa|10e74f26] (0+2/2) Accurately ripped 09 [b9962ca3|ec81d8bd] (0+2/2) Accurately ripped 10 [c7a70b82|a73778c3] (0+2/2) Accurately ripped 11 [9885b037|ea4bd4b0] (0+2/2) Accurately ripped 12 [968b3cf4|56bda471] (0+2/2) Accurately ripped 13 [6dd958e0|e4019e77] (0+2/2) Accurately ripped 14 [fb0ffae9|7f1ad4e5] (0+2/2) Accurately ripped 15 [9ee9713a|cdf90766] (0+2/2) Accurately ripped
Track Peak [ CRC32 ] [W/O NULL] [ LOG ] -- 99,9 [4BAD0823] [8E4BD311] 01 99,9 [854795DF] [DC883F19] CRC32 02 96,6 [79F686E1] [40B00CFC] CRC32 03 85,4 [F0C6D70B] [E0573AB4] CRC32 04 84,0 [12C8CBC2] [CFAAFE91] CRC32 05 85,7 [432996EE] [EB984E9C] CRC32 06 84,1 [7FA00367] [250776E9] CRC32 07 60,6 [B1273CB7] [106EE025] CRC32 08 69,5 [BA7ADA89] [50B942D3] CRC32 09 58,0 [59C4C5D7] [C37C3741] CRC32 10 58,7 [4AB47942] [698F290D] CRC32 11 73,8 [BBB25966] [B5298142] CRC32 12 90,4 [E653F911] [FDBD1E71] CRC32 13 40,4 [589BFA40] [0D9B524F] CRC32 14 39,4 [51F13F38] [E2AE7836] CRC32 15 66,2 [C6A57A87] [0C9041F7] CRC32

Review by James Manheim

This recording, released in 2015, may be the final release to feature Julian Lloyd Webber as a cellist; neck injuries have forced him to make a transition to conducting, so the album, on which he appears in both capacities, is something of a milestone. It's a remarkably personal document, featuring a previously unrecorded work, The Moon, by Julian (and Andrew) Lloyd Webber's father and the title work by Howard Goodall, dedicated to a cellist who died at the age of 17. The best news, however, is that Lloyd Webber emerges as a solid talent with the baton, getting a big, distinctive sound out of the venerable English Chamber Orchestra in this set of exquisitely sentimental British string music. There are several more unusual pieces and world premieres here, including Elgar's Sospiri, Op. 70, performed with its original harmonium, and two Elgar "chansons" transcribed from violin-and-piano works. But he also does well with more familiar repertory, lending grace to Elgar's Tchaikovskian Serenade for strings, Op. 20, and weight to the Introduction and Allegro for strings, Op. 47. For an entire album of conservative British string orchestra music of the 20th and 21st centuries, Lloyd Webber realizes quite a variety of moods and keeps the orchestra under tight control in what must have been largely unfamiliar music, even in England. Recommended for those with the slightest sympathy toward English music.



Показать сообщения:    

Текущее время: 05-Дек 03:30

Часовой пояс: UTC + 3


Вы не можете начинать темы
Вы не можете отвечать на сообщения
Вы не можете редактировать свои сообщения
Вы не можете удалять свои сообщения
Вы не можете голосовать в опросах
Вы не можете прикреплять файлы к сообщениям
Вы не можете скачивать файлы