(Classical) Allen Vizzutti - A Trumpeter's Dream {Hertel, Vizzutti, Римский-Корсаков, Clarke, Bitsch, Staigers, Arlen} - 1993, FLAC (tracks+.cue), lossless


 

[Цитировать]

Allen Vizzutti - A Trumpeter's Dream
Жанр: Classical
Страна-производитель диска: Япония
Год издания диска: 1993
Издатель (лейбл): Kosei
Номер по каталогу: KOCD-2501
Аудиокодек: FLAC
Тип рипа: tracks+.cue
Битрейт аудио: lossless
Продолжительность: 1:07:56
Источник (релизер): billchase (what)
Наличие сканов в содержимом раздачи: нет
Треклист:
Johann Wilhelm Hertel
Trumpet Concerto No.1 in E-flat Major
01. I. Allegro (4:45)
02. II. Larghetto (4:20)
03. III. Vivace (4:04)
Nicolai Rimsky-Korsakov
04. Flight of the Bumble Bee (2:55)
Allen Vizzutti
Sonata for Trumpet
05. I. Allegro (5:24)
06. II. Andante (4:13)
07. III. Allegro (4:09)
08. A Trumpeter's Dream (3:20)
Sonata for Oboe
09. I. Slowly (5:08)
10. II. Allegro (4:14)
Herbert L. Clarke
11. The Bride of the Waves (6:25)
Marcel Bitsch
12. Quatre Variations sur un Theme de Domenico Scarlatti (6:59)
Delaware Staigers
13. Carnival of Venice (4:18)
Allen Vizzutti
14. Cascades (2:38)
Harold Arlen
15. Over the Rainbow (5:04)
Исполнители:
Allen Vizzutti - trumpet, piccolo trumpet, cornet, flugelhorn
Laura Vincent Vizzutti - piano

Лог создания рипа

Exact Audio Copy V1.0 beta 3 from 29. August 2011
EAC extraction logfile from 16. November 2013, 10:36
Allen Vizzutti / A Trumpeter's Dream
Used drive : HL-DT-STDVDRAM GH22NS40 Adapter: 8 ID: 0
Read mode : SecureUtilize accurate stream : YesDefeat audio cache : YesMake use of C2 pointers : No
Read offset correction : 667Overread into Lead-In and Lead-Out : NoFill up missing offset samples with silence : YesDelete leading and trailing silent blocks : NoNull samples used in CRC calculations : YesUsed interface : Native Win32 interface for Win NT & 2000Gap handling : Appended to previous track
Used output format : User Defined EncoderSelected bitrate : 1024 kBit/sQuality : HighAdd ID3 tag : NoCommand line compressor : C:\Program Files (x86)\Exact Audio Copy\Flac\flac.exeAdditional command line options : -8 -V -T "ARTIST=%artist%" -T "TITLE=%title%" -T "ALBUM=%albumtitle%" -T "DATE=%year%" -T "TRACKNUMBER=%tracknr%" -T "GENRE=%genre%" -T "PERFORMER=%albuminterpret%" -T "COMPOSER=%composer%" %haslyrics%--tag-from-file=LYRICS="%lyricsfile%"%haslyrics% -T "ALBUMARTIST=%albumartist%" -T "DISCNUMBER=%cdnumber%" -T "TOTALDISCS=%totalcds%" -T "TOTALTRACKS=%numtracks%" -T "COMMENT=%comment%" %source% -o %dest%
TOC of the extracted CD
Track | Start | Length | Start sector | End sector --------------------------------------------------------- 1 | 0:00.37 | 4:45.25 | 37 | 21436 2 | 4:45.62 | 4:20.13 | 21437 | 40949 3 | 9:06.00 | 4:03.70 | 40950 | 59244 4 | 13:09.70 | 2:54.42 | 59245 | 72336 5 | 16:04.37 | 5:24.25 | 72337 | 96661 6 | 21:28.62 | 4:12.50 | 96662 | 115611 7 | 25:41.37 | 4:09.25 | 115612 | 134311 8 | 29:50.62 | 3:20.25 | 134312 | 149336 9 | 33:11.12 | 5:08.00 | 149337 | 172436 10 | 38:19.12 | 4:13.50 | 172437 | 191461 11 | 42:32.62 | 6:24.50 | 191462 | 220311 12 | 48:57.37 | 6:59.20 | 220312 | 251756 13 | 55:56.57 | 4:18.03 | 251757 | 271109 14 | 60:14.60 | 2:37.62 | 271110 | 282946 15 | 62:52.47 | 5:03.65 | 282947 | 305736
Track 1
Filename E:\EAC\01 - J.W.Hertel - Konzert Nr1 1.Allegro.wav
Pre-gap length 0:00:02.49
Peak level 65.0 % Extraction speed 1.2 X Track quality 100.0 % Test CRC AF4F3166 Copy CRC AF4F3166 Cannot be verified as accurate (confidence 1) [4A03EF84], AccurateRip returned [DEFAA2A6] (AR v2) Copy OK
Track 2
Filename E:\EAC\02 - J.W.Hertel - Konzert Nr1 2.Larghetto.wav
Pre-gap length 0:00:01.78
Peak level 44.0 % Extraction speed 1.3 X Track quality 100.0 % Test CRC D570C35D Copy CRC D570C35D Cannot be verified as accurate (confidence 1) [568772F8], AccurateRip returned [D413A0BD] (AR v2) Copy OK
Track 3
Filename E:\EAC\03 - J.W.Hertel - Konzert Nr1 3.Vivace.wav
Pre-gap length 0:00:00.65
Peak level 94.2 % Extraction speed 1.4 X Track quality 100.0 % Test CRC 4B5946B6 Copy CRC 4B5946B6 Cannot be verified as accurate (confidence 1) [EAA4A35D], AccurateRip returned [53737F67] (AR v2) Copy OK
Track 4
Filename E:\EAC\04 - Hummelflug.wav
Pre-gap length 0:00:01.32
Peak level 95.6 % Extraction speed 1.3 X Track quality 100.0 % Test CRC A68F71FD Copy CRC A68F71FD Cannot be verified as accurate (confidence 1) [EECBB7FF], AccurateRip returned [93013AFB] (AR v2) Copy OK
Track 5
Filename E:\EAC\05 - A.Vizzutti - Sonate 1.Allegro.wav
Pre-gap length 0:00:03.58
Peak level 86.1 % Extraction speed 1.5 X Track quality 99.9 % Test CRC 5732E347 Copy CRC 5732E347 Cannot be verified as accurate (confidence 1) [12A2B524], AccurateRip returned [AB8F4436] (AR v2) Copy OK
Track 6
Filename E:\EAC\06 - A.Vizzutti - Sonate 2.Andante.wav
Pre-gap length 0:00:02.65
Peak level 74.2 % Extraction speed 1.5 X Track quality 99.9 % Test CRC C60BCE15 Copy CRC C60BCE15 Cannot be verified as accurate (confidence 1) [9F2C8738], AccurateRip returned [BAA1A2C6] (AR v2) Copy OK
Track 7
Filename E:\EAC\07 - A.Vizzutti - Sonate 3.Allegro.wav
Pre-gap length 0:00:02.25
Peak level 100.0 % Extraction speed 1.5 X Track quality 99.9 % Test CRC 40EC63F9 Copy CRC 40EC63F9 Cannot be verified as accurate (confidence 1) [0D77633A], AccurateRip returned [71909375] (AR v2) Copy OK
Track 8
Filename E:\EAC\08 - A Trumpeter's Dream.wav
Pre-gap length 0:00:04.32
Peak level 86.9 % Extraction speed 1.8 X Track quality 100.0 % Test CRC 9D37AD59 Copy CRC 9D37AD59 Cannot be verified as accurate (confidence 1) [1A219663], AccurateRip returned [6857DC23] (AR v2) Copy OK
Track 9
Filename E:\EAC\09 - A.Vizzutti - Sonate für Oboe 1.Slowly.wav
Pre-gap length 0:00:03.32
Peak level 74.7 % Extraction speed 1.9 X Track quality 100.0 % Test CRC D408885D Copy CRC D408885D Cannot be verified as accurate (confidence 1) [5A9D39A4], AccurateRip returned [326BF579] (AR v2) Copy OK
Track 10
Filename E:\EAC\10 - A.Vizzutti - Sonate für Oboe 2.Allegro.wav
Pre-gap length 0:00:03.14
Peak level 100.0 % Extraction speed 2.0 X Track quality 100.0 % Test CRC FB14AF3F Copy CRC FB14AF3F Cannot be verified as accurate (confidence 1) [AB21276D], AccurateRip returned [B361B42B] (AR v2) Copy OK
Track 11
Filename E:\EAC\11 - The bridge of the waves.wav
Pre-gap length 0:00:07.18
Peak level 100.0 % Extraction speed 2.2 X Track quality 100.0 % Test CRC 3E40E4DF Copy CRC 3E40E4DF Cannot be verified as accurate (confidence 1) [A365429A], AccurateRip returned [3C2C55FE] (AR v2) Copy OK
Track 12
Filename E:\EAC\12 - 4 Variationen auf ein Thema von Domenice Scarlatti.wav
Pre-gap length 0:00:05.21
Peak level 100.0 % Extraction speed 2.1 X Track quality 99.9 % Test CRC 9BA534D5 Copy CRC 9BA534D5 Cannot be verified as accurate (confidence 1) [23A0855D], AccurateRip returned [47A94968] (AR v2) Copy OK
Track 13
Filename E:\EAC\13 - Karneval von Venedig.wav
Pre-gap length 0:00:02.32
Peak level 99.8 % Extraction speed 2.3 X Track quality 100.0 % Test CRC 8E12A714 Copy CRC 8E12A714 Cannot be verified as accurate (confidence 1) [98BC6EA4], AccurateRip returned [18E9F232] (AR v2) Copy OK
Track 14
Filename E:\EAC\14 - Cascades.wav
Pre-gap length 0:00:04.29
Peak level 96.3 % Extraction speed 2.2 X Track quality 100.0 % Test CRC 422CB298 Copy CRC 422CB298 Cannot be verified as accurate (confidence 1) [D5B71691], AccurateRip returned [E4B85CE0] (AR v2) Copy OK
Track 15
Filename E:\EAC\15 - Over the rainbow.wav
Pre-gap length 0:00:02.98
Peak level 72.3 % Extraction speed 2.5 X Track quality 100.0 % Test CRC 69C61D9E Copy CRC 69C61D9E Cannot be verified as accurate (confidence 1) [B965555B], AccurateRip returned [33E2A2CC] (AR v2) Copy OK
No tracks could be verified as accurateYou may have a different pressing from the one(s) in the database
No errors occurred
End of status report
==== Log checksum 0CA7716CE0C8B6F081E2BF8BD8280E89AA78761A09F8441DD30C4FEDDEB34AAF ====

Содержание индексной карты (.CUE)

REM GENRE ClassicalREM DATE 1993REM DISCID F10FEC0FREM COMMENT "ExactAudioCopy v1.0b3"PERFORMER "Allen Vizzutti"TITLE "A Trumpeter's Dream"FILE "01 - Hertel- Trumpet Concerto No.1 in E-flat Major- I. Allegro.wav" WAVE TRACK 01 AUDIO TITLE "Hertel: Trumpet Concerto No.1 in E-flat Major: I. Allegro" PERFORMER "Allen Vizzutti" PREGAP 00:00:37 INDEX 01 00:00:00 TRACK 02 AUDIO TITLE "Hertel: Trumpet Concerto No.1 in E-flat Major: II. Larghetto" PERFORMER "Allen Vizzutti" INDEX 00 04:43:41FILE "02 - Hertel- Trumpet Concerto No.1 in E-flat Major- II. Larghetto.wav" WAVE INDEX 01 00:00:00 TRACK 03 AUDIO TITLE "Hertel: Trumpet Concerto No.1 in E-flat Major: III. Vivace" PERFORMER "Allen Vizzutti" INDEX 00 04:19:39FILE "03 - Hertel- Trumpet Concerto No.1 in E-flat Major- III. Vivace.wav" WAVE INDEX 01 00:00:00 TRACK 04 AUDIO TITLE "Rimsky-Korsakov: Flight of the Bumble Bee" PERFORMER "Allen Vizzutti" INDEX 00 04:02:46FILE "04 - Rimsky-Korsakov- Flight of the Bumble Bee.wav" WAVE INDEX 01 00:00:00 TRACK 05 AUDIO TITLE "Vizzutti: Sonata for Trumpet: I. Allegro" PERFORMER "Allen Vizzutti" INDEX 00 02:50:73FILE "05 - Vizzutti- Sonata for Trumpet- I. Allegro.wav" WAVE INDEX 01 00:00:00 TRACK 06 AUDIO TITLE "Vizzutti: Sonata for Trumpet: II. Andante" PERFORMER "Allen Vizzutti" INDEX 00 05:21:51FILE "06 - Vizzutti- Sonata for Trumpet- II. Andante.wav" WAVE INDEX 01 00:00:00 TRACK 07 AUDIO TITLE "Vizzutti: Sonata for Trumpet: III. Allegro" PERFORMER "Allen Vizzutti" INDEX 00 04:10:31FILE "07 - Vizzutti- Sonata for Trumpet- III. Allegro.wav" WAVE INDEX 01 00:00:00 TRACK 08 AUDIO TITLE "Vizzutti: A Trumpeter's Dream" PERFORMER "Allen Vizzutti" INDEX 00 04:05:01FILE "08 - Vizzutti- A Trumpeter's Dream.wav" WAVE INDEX 01 00:00:00 TRACK 09 AUDIO TITLE "Vizzutti: Sonata for Oboe: I. Slowly" PERFORMER "Allen Vizzutti" INDEX 00 03:17:01FILE "09 - Vizzutti- Sonata for Oboe- I. Slowly.wav" WAVE INDEX 01 00:00:00 TRACK 10 AUDIO TITLE "Vizzutti: Sonata for Oboe: II. Allegro" PERFORMER "Allen Vizzutti" INDEX 00 05:04:64FILE "10 - Vizzutti- Sonata for Oboe- II. Allegro.wav" WAVE INDEX 01 00:00:00 TRACK 11 AUDIO TITLE "Clarke: The Bride of the Waves" PERFORMER "Allen Vizzutti" INDEX 00 04:06:36FILE "11 - Clarke- The Bride of the Waves.wav" WAVE INDEX 01 00:00:00 TRACK 12 AUDIO TITLE "Bitsch: Quatre Variations sur un Theme de Domenico Scarlatti" PERFORMER "Allen Vizzutti" INDEX 00 06:19:34FILE "12 - Bitsch- Quatre Variations sur un Theme de Domenico Scarlatti.wav" WAVE INDEX 01 00:00:00 TRACK 13 AUDIO TITLE "Staigers: Carnival of Venice" PERFORMER "Allen Vizzutti" INDEX 00 06:56:71FILE "13 - Staigers- Carnival of Venice.wav" WAVE INDEX 01 00:00:00 TRACK 14 AUDIO TITLE "Vizzutti: Cascades" PERFORMER "Allen Vizzutti" INDEX 00 04:13:56FILE "14 - Vizzutti- Cascades.wav" WAVE INDEX 01 00:00:00 TRACK 15 AUDIO TITLE "Arlen: Over the Rainbow" PERFORMER "Allen Vizzutti" INDEX 00 02:34:63FILE "15 - Arlen- Over the Rainbow.wav" WAVE INDEX 01 00:00:00

Отчет CUETools

[CUETools log; Date: 03.06.2015 23:56:43; Version: 2.1.5]Pregap length 00:00:37.[CTDB TOCID: XBPfFdLI3IYllGn_AEJ4YEPuSJo-] disk not present in database.[AccurateRip ID: 0024671b-019fd061-f10fec0f] found.Track [ CRC | V2 ] Status 01 [59ed60ff|4a03ef84] (0+0/1) No match 02 [aa20b1c9|568772f8] (0+0/1) No match 03 [bb46f95e|eaa4a35d] (0+0/1) No match 04 [f0350cc9|eecbb7ff] (0+0/1) No match 05 [04e07290|12a2b524] (0+0/1) No match 06 [66780d12|9f2c8738] (0+0/1) No match 07 [b379f73b|0d77633a] (0+0/1) No match 08 [1fb03a69|1a219663] (0+0/1) No match 09 [67a2a7b5|5a9d39a4] (0+0/1) No match 10 [3ffc289c|ab21276d] (0+0/1) No match 11 [f8f35f15|a365429a] (0+0/1) No match 12 [63d8c168|23a0855d] (0+0/1) No match 13 [ed054774|98bc6ea4] (0+0/1) No match 14 [e59b5f8d|d5b71691] (0+0/1) No match 15 [0c9f5b7c|b965555b] (0+0/1) No matchOffsetted by 287: 01 [defaa2a6] (1/1) Accurately ripped 02 [d413a0bd] (1/1) Accurately ripped 03 [53737f67] (1/1) Accurately ripped 04 [93013afb] (1/1) Accurately ripped 05 [ab8f4436] (1/1) Accurately ripped 06 [baa1a2c6] (1/1) Accurately ripped 07 [71909375] (1/1) Accurately ripped 08 [6857dc23] (1/1) Accurately ripped 09 [326bf579] (1/1) Accurately ripped 10 [b361b42b] (1/1) Accurately ripped 11 [3c2c55fe] (1/1) Accurately ripped 12 [47a94968] (1/1) Accurately ripped 13 [18e9f232] (1/1) Accurately ripped 14 [e4b85ce0] (1/1) Accurately ripped 15 [33e2a2cc] (1/1) Accurately ripped
Track Peak [ CRC32 ] [W/O NULL] [ LOG ] -- 100,0 [A4F5FE69] [B3FC204B] 01 65,0 [AF4F3166] [FD7621A1] CRC32 02 44,0 [D570C35D] [A89CD106] CRC32 03 94,2 [4B5946B6] [CD8514D0] CRC32 04 95,6 [A68F71FD] [71041DB7] CRC32 05 86,1 [5732E347] [A0C5D6F3] CRC32 06 74,2 [C60BCE15] [41C95580] CRC32 07 100,0 [40EC63F9] [4B5661F4] CRC32 08 86,9 [9D37AD59] [C763B030] CRC32 09 74,7 [D408885D] [04C9E4B1] CRC32 10 100,0 [FB14AF3F] [37CB3093] CRC32 11 100,0 [3E40E4DF] [DE9373A7] CRC32 12 100,0 [9BA534D5] [FC33FD9A] CRC32 13 99,8 [8E12A714] [81357F63] CRC32 14 96,3 [422CB298] [C8F402C2] CRC32 15 72,3 [69C61D9E] [8B937296] CRC32

Об альбоме (сборнике)

A brilliant trumpeter with a wide range and technique that borders on the wondrous, Al Vizzutti has thus far mostly recorded in more poppish settings than one would hope. He began studying classical trumpet at age nine from his father, a self-taught trumpeter. Vizzutti advanced very quickly and, while still in high school, he played with the University of Montana Band. In 1967, he met Doc Severinson and through the years he often appeared with the Tonight Show Orchestra, also writing and arranging some music for Severinson's albums. Vizzutti attended the Eastman School of Music, touring as a freshman with Eastman's faculty brass quintet. As a section trumpeter, he had opportunities to play concerts with Stan Getz, Gerry Mulligan, Oliver Nelson, Dizzy Gillespie, Thad Jones, Dave Brubeck, Bill Watrous, Chuck Mangione and others. He also spent time while in college playing as a member of the Rochester Philharmonic Orchestra. A year and one-half (1976-77) as Woody Herman's first trumpeter found Vizzutti touring with the big band. He gained some fame after leaving Herman for his work with Chick Corea, appearing on Corea's Secret Agent, Tap Step and Touch Stone albums. Vizzutti became a top studio musician in the Los Angeles area, and he also led intriguing albums for Headfirst (1979), Four Leaf Clover (1980), Bainbridge (1982) and Summit (including a collaboration in the mid '90s with fellow trumpeters Bobby Shew and Vince Di Martino as Trumpet Summit). Al Vizzutti has remained a legend among trumpeters but has mostly chosen to work in the background, doing clinics and adding high notes anonymously to studio sessions.
This album features Allen, his wife Laura, on standard selections in the trumpet repertoire.



Показать сообщения:    

Текущее время: 05-Дек 05:29

Часовой пояс: UTC + 3


Вы не можете начинать темы
Вы не можете отвечать на сообщения
Вы не можете редактировать свои сообщения
Вы не можете удалять свои сообщения
Вы не можете голосовать в опросах
Вы не можете прикреплять файлы к сообщениям
Вы не можете скачивать файлы