(Classical, Chamber) Kavakos plays Kreisler, Paganini, Wieniawski, Tchaikovsky, Debussy, Schubert & more (Leonidas Kavakos, violin, Peter Nagy, piano) - 1992, FLAC (image+.cue), lossless


 

[Цитировать]

Kavakos plays Kreisler, Paganini, Wieniawski, Tchaikovsky, Debussy, Schubert & more
Жанр: Classical, Chamber
Страна-производитель диска: USA
Год издания диска: 1992
Издатель (лейбл): Delos International
Номер по каталогу: DE 3116
Дата записи: 11-13/11/1991
Аудиокодек: FLAC
Тип рипа: image+.cue
Битрейт аудио: lossless
Продолжительность: 59.30
Источник: собственный рип
Наличие сканов в содержимом раздачи: да
Исполнители: Leonidas Kavakos, violin, Peter Nagy, piano

Треклист:

01. William Kroll - Banjo & Fiddle
02. Antonio Bazzini - La Ronde Des Lutins
03. Fritz Kreisler - Liebesleid
04. Fritz Kreisler - Tambourin Chinois
05. Peter Tchaikovsky - Melody
06. Franz Schubert - L'Abeille
07. Nicolo Paganini - Le Streghe
08. Claude Debussy - La fille aux cheveux de lin
09. Fritz Kreisler - Caprice Viennois
10. Henri Wieniawski - Polonaise Brilliante
11. Fritz Kreisler - Liebesfreud
12. Max Ernst - Fantasy & Variations on a Theme from Rossini's Otello
Total 59.30

Лог создания рипа:

Exact Audio Copy V1.0 beta 3 from 29. August 2011
Отчёт EAC об извлечении, выполненном 30. мая 2015, 22:04
Leonidas Kavakos / Kavakos plays Kreisler, Paganini, Wieniawski, Tchaikovsky, Debussy, Schubert
Дисковод: Optiarc DVD RW AD-7260S Adapter: 0 ID: 1
Режим чтения : ДостоверностьИспользование точного потока : ДаОтключение кэша аудио : ДаИспользование указателей C2 : Нет
Коррекция смещения при чтении : 48Способность читать области Lead-in и Lead-out : НетЗаполнение пропущенных сэмплов тишиной : ДаУдаление блоков с тишиной в начале и конце : НетПри вычислениях CRC использовались нулевые сэмплы : ДаИнтерфейс : Встроенный Win32-интерфейс для Win NT/2000
Выходной формат : Пользовательский кодировщикВыбранный битрейт : 896 kBit/sКачество : ВысокийДобавление ID3-тега : НетУтилита сжатия : C:\Program Files\FLAC Frontend\tools\flac.exeДополнительные параметры : -V -8 -T "Date=%year%" -T "Genre=%genre%" %source%
TOC извлечённого CD
Трек | Старт | Длительность | Начальный сектор | Конечный сектор --------------------------------------------------------------------- 1 | 0:00.00 | 2:46.00 | 0 | 12449 2 | 2:46.00 | 5:05.00 | 12450 | 35324 3 | 7:51.00 | 4:26.00 | 35325 | 55274 4 | 12:17.00 | 4:00.00 | 55275 | 73274 5 | 16:17.00 | 3:47.00 | 73275 | 90299 6 | 20:04.00 | 1:13.00 | 90300 | 95774 7 | 21:17.00 | 9:29.00 | 95775 | 138449 8 | 30:46.00 | 2:26.00 | 138450 | 149399 9 | 33:12.00 | 4:29.00 | 149400 | 169574 10 | 37:41.00 | 4:54.00 | 169575 | 191624 11 | 42:35.00 | 3:50.00 | 191625 | 208874 12 | 46:25.00 | 13:05.20 | 208875 | 267769
Характеристики диапазона извлечения и сообщения об ошибках
Выбранный диапазон
Имя файла D:\EAC\Мои раздачи\Kavakos plays Kreisler, Paganini, Wieniawski, Tchaikovsky, Debussy, Schubert\Leonidas Kavakos - Kavakos plays Kreisler, Paganini, Wieniawski, Tchaikovsky, Debussy, Schubert.wav
Пиковый уровень 95.0 % Скорость извлечения 4.1 X Качество диапазона 100.0 % CRC теста C8107891 CRC копии C8107891 Копирование... OK
Ошибок не произошло
AccurateRip: сводка
Трек 1 точность не определена (достоверность 2) [39FC07AA], AccurateRip вернул [D9BDB72E] (AR v2)Трек 2 точность не определена (достоверность 2) [4A7DEAB8], AccurateRip вернул [0890788E] (AR v2)Трек 3 точность не определена (достоверность 2) [31891CFE], AccurateRip вернул [AE18A862] (AR v2)Трек 4 точность не определена (достоверность 2) [733CA7E5], AccurateRip вернул [D581B4B6] (AR v2)Трек 5 точность не определена (достоверность 2) [1A25F25E], AccurateRip вернул [DE4887F2] (AR v2)Трек 6 точность не определена (достоверность 2) [7AE3391E], AccurateRip вернул [6F9B0C7B] (AR v2)Трек 7 точность не определена (достоверность 2) [65CB6DAA], AccurateRip вернул [95DF9766] (AR v2)Трек 8 точность не определена (достоверность 2) [A20B65C3], AccurateRip вернул [8901A7E5] (AR v2)Трек 9 точность не определена (достоверность 2) [FC9058B8], AccurateRip вернул [E3546E71] (AR v2)Трек 10 точность не определена (достоверность 2) [13B16CD4], AccurateRip вернул [AA082418] (AR v2)Трек 11 точность не определена (достоверность 2) [923E2B9D], AccurateRip вернул [71B7E046] (AR v2)Трек 12 точность не определена (достоверность 2) [0478C324], AccurateRip вернул [A083D2AE] (AR v2)
Ни один трек не прошёл проверки на точностьВ вашей базе может быть иной вариант штамповки диска
Конец отчёта
==== Контрольная сумма отчёта D7D6E20027FF20DF26FF9DA4FDDE34160B23E11144C3FB542547A116D72C24D4 ====



Показать сообщения:    

Текущее время: 18-Янв 00:24

Часовой пояс: UTC + 3


Вы не можете начинать темы
Вы не можете отвечать на сообщения
Вы не можете редактировать свои сообщения
Вы не можете удалять свои сообщения
Вы не можете голосовать в опросах
Вы не можете прикреплять файлы к сообщениям
Вы не можете скачивать файлы