(Classical) Juhani Nuorvala - What\'s a Nice Chord Like You Doing in a Piece Like This?; String Quartets Nos.1&2; Three Impromptus - Kerava Quartet, Avanti Quartet, Nikula, Luoma, Pirinen, Meisalmi-Minklainen, Valo - 2000, FLAC (image+.cue) lossless


 

[Цитировать]

Juhani Nuorvala - What's a Nice Chord Like You Doing in a Piece Like This?; String Quartets Nos.1&2; Three Impromptus - Kerava Quartet, Avanti Quartet, Nikula, Luoma, Pirinen, Meisalmi-Minklainen, Valo
Жанр: Classical
Страна-производитель диска: Sweden
Год издания диска: 2000
Издатель (лейбл): BIS
Номер по каталогу: BIS-CD-1107
Дата записи: 1993-1999
Аудиокодек: FLAC
Тип рипа: image+.cue
Битрейт аудио: lossless
Продолжительность: 67:00
Источник: собственный рип
Наличие сканов в содержимом раздачи: да
Треклист:
Juhani Nuorvala (b.1961)
[1]-[3] Three Impromptus for clarinet and kantele (1995)
Heikki Nikula clarinet
Aino Meisalmi-Minklainen kantele
[4]-[6] String Quartet No.2 (1997)
Kerava Quartet
[7] 'What's a Nice Chord Like You Doing in a Piece Like This?'
for three accordions (1996)
Mikko Luoma accordion (all three parts)
[8]-[10] String Quartet No.1, 'Dancescapes' (1992)
Avanti Quartet
[11] Twitching Gait for chamber ensemble (1993)
Petri Alanko flute
Heikki Nikula clarinet
Pasi Pirinen trumpet
Jari Valo violin
Risto Poutanen cello
Исполнители:
Heikki Nikula clarinet
Aino Meisalmi-Minklainen kantele
Mikko Luoma accordion
Petri Alanko flute
Pasi Pirinen trumpet
Jari Valo violin
Risto Poutanen cello
Kerava Quartet
Avanti Quartet

Лог создания рипа

Exact Audio Copy V1.0 beta 3 from 29. August 2011
EAC extraction logfile from 21. December 2014, 18:56
- / Nuorvala - What's a Nice Chord Like You Doing in a Piece Like This?
Used drive : HL-DT-STDVDRAM GU70N Adapter: 0 ID: 0
Read mode : SecureUtilize accurate stream : YesDefeat audio cache : YesMake use of C2 pointers : No
Read offset correction : 48Overread into Lead-In and Lead-Out : NoFill up missing offset samples with silence : YesDelete leading and trailing silent blocks : NoNull samples used in CRC calculations : YesUsed interface : Native Win32 interface for Win NT & 2000
Used output format : User Defined EncoderSelected bitrate : 128 kBit/sQuality : HighAdd ID3 tag : NoCommand line compressor : C:\Program Files (x86)\Exact Audio Copy\Flac\flac.exeAdditional command line options : -V -8 -T "Date=%year%" -T "Genre=%genre%" %source%
TOC of the extracted CD
Track | Start | Length | Start sector | End sector --------------------------------------------------------- 1 | 0:00.00 | 7:59.60 | 0 | 35984 2 | 7:59.60 | 3:36.27 | 35985 | 52211 3 | 11:36.12 | 4:00.55 | 52212 | 70266 4 | 15:36.67 | 8:31.70 | 70267 | 108661 5 | 24:08.62 | 3:22.38 | 108662 | 123849 6 | 27:31.25 | 5:27.20 | 123850 | 148394 7 | 32:58.45 | 8:04.72 | 148395 | 184766 8 | 41:03.42 | 3:42.40 | 184767 | 201456 9 | 44:46.07 | 10:57.60 | 201457 | 250791 10 | 55:43.67 | 4:07.65 | 250792 | 269381 11 | 59:51.57 | 7:06.18 | 269382 | 301349
Range status and errors
Selected range
Filename C:\temp\BIS-CD-1107 - Nuorvala - What's a Nice Chord Like You Doung in a Piece Like This\Nuorvala - What's a Nice Chord Like You Doing in a Piece Like This.wav
Peak level 99.9 % Extraction speed 2.1 X Range quality 100.0 % Test CRC 8481F79F Copy CRC 8481F79F Copy OK
No errors occurred
AccurateRip summary
Track 1 cannot be verified as accurate (confidence 1) [2D1CCE85], AccurateRip returned [A181E35E] (AR v2)Track 2 cannot be verified as accurate (confidence 1) [719DC873], AccurateRip returned [779EA253] (AR v2)Track 3 cannot be verified as accurate (confidence 1) [F703D095], AccurateRip returned [6722EE7C] (AR v2)Track 4 cannot be verified as accurate (confidence 1) [198C442C], AccurateRip returned [23E169F9] (AR v2)Track 5 cannot be verified as accurate (confidence 1) [0C1A8718], AccurateRip returned [B022BAF1] (AR v2)Track 6 cannot be verified as accurate (confidence 1) [91433D61], AccurateRip returned [19359573] (AR v2)Track 7 cannot be verified as accurate (confidence 1) [C1A1D97F], AccurateRip returned [7B0C7E4D] (AR v2)Track 8 cannot be verified as accurate (confidence 1) [091B3AD3], AccurateRip returned [B64877AF] (AR v2)Track 9 cannot be verified as accurate (confidence 1) [36656AAC], AccurateRip returned [0DCE5134] (AR v2)Track 10 cannot be verified as accurate (confidence 1) [01086049], AccurateRip returned [9F548041] (AR v2)Track 11 cannot be verified as accurate (confidence 1) [CC32ACC3], AccurateRip returned [30AF065F] (AR v2)
No tracks could be verified as accurateYou may have a different pressing from the one(s) in the database
End of status report
==== Log checksum 7E12C56184F98CBCC3668FA474C0835FD293A851B82D3876B1791A8C19E5F2DE ====



Показать сообщения:    

Текущее время: 03-Дек 07:41

Часовой пояс: UTC + 3


Вы не можете начинать темы
Вы не можете отвечать на сообщения
Вы не можете редактировать свои сообщения
Вы не можете удалять свои сообщения
Вы не можете голосовать в опросах
Вы не можете прикреплять файлы к сообщениям
Вы не можете скачивать файлы