(Classical, Chamber) Couperin - Chamber Music (complete) - (Musica ad Rhenum, Jed Wentz) - 2008, FLAC (image+.cue), lossless


 

[Цитировать]

Couperin - Chamber Music (complete) - Wentz
Жанр: Classical, Chamber
Страна-производитель диска: E.U.
Год издания диска: 2008
Издатель (лейбл): Brilliant Classics
Номер по каталогу: 92178
Дата записи: 03-05/2004
Аудиокодек: FLAC
Тип рипа: image+.cue
Битрейт аудио: lossless
Продолжительность: 367.21
Источник: собственный рип
Наличие сканов в содержимом раздачи: да
Исполнители: Musica ad Rhenum, Jed Wentz

CD1:Треклист:

Les Nations, Vol. 1
01. Gravement
02. Gayement
03. Rondement
04. Gayement
05. Gravement
06. Vivment
07. Air gracieusement
08. Gayement
09. Prelude de M. Hotteterre
10. Allemande sans lenteur
11. Premiere Courante noblement
12. Seconde Courante un peu plus viste
13. Sarabande gravement
14. Gigue gayement
15. Chaconne ou Passacaille moderement
16. Gavote
17. Menuet
18. Gravement, et mesure
19. Vivement
20. Affectueusement
21. Legerement
22. Repos / gayement / repos / gayement
23. Air tendre
24. Vivement, et marque
25. Allemande gracieusement
26. Courante noblement
27. Seconde Courante un peu plus vivement
28. Sarabande gravement
29. Gigue louree moderement
30. Gavote tendrement, sans lenteur
31. Rondeau afectueusement
32. Bouree gayement
33. Passacaile noblement, et marque
Total 48.29

Лог создания рипа:

Exact Audio Copy V1.0 beta 3 from 29. August 2011
Отчёт EAC об извлечении, выполненном 17. марта 2015, 17:28
Francois Couperin / Chamber Music (complete), CD1 - Les Nations, Vol. 1
Дисковод: Optiarc DVD RW AD-7260S Adapter: 0 ID: 1
Режим чтения : Достоверность
Использование точного потока : Да
Отключение кэша аудио : Да
Использование указателей C2 : Нет
Коррекция смещения при чтении : 48
Способность читать области Lead-in и Lead-out : Нет
Заполнение пропущенных сэмплов тишиной : Да
Удаление блоков с тишиной в начале и конце : Нет
При вычислениях CRC использовались нулевые сэмплы : Да
Интерфейс : Встроенный Win32-интерфейс для Win NT/2000
Выходной формат : Пользовательский кодировщик
Выбранный битрейт : 896 kBit/s
Качество : Высокий
Добавление ID3-тега : Нет
Утилита сжатия : C:\Program Files\FLAC Frontend\tools\flac.exe
Дополнительные параметры : -V -8 -T "Date=%year%" -T "Genre=%genre%" %source%
TOC извлечённого CD
Трек | Старт | Длительность | Начальный сектор | Конечный сектор
---------------------------------------------------------------------
1 | 0:00.00 | 0:42.69 | 0 | 3218
2 | 0:42.69 | 0:57.72 | 3219 | 7565
3 | 1:40.66 | 0:18.30 | 7566 | 8945
4 | 1:59.21 | 0:42.41 | 8946 | 12136
5 | 2:41.62 | 0:44.16 | 12137 | 15452
6 | 3:26.03 | 0:48.16 | 15453 | 19068
7 | 4:14.19 | 0:34.63 | 19069 | 21681
8 | 4:49.07 | 1:17.49 | 21682 | 27505
9 | 6:06.56 | 1:00.01 | 27506 | 32006
10 | 7:06.57 | 3:11.11 | 32007 | 46342
11 | 10:17.68 | 1:25.13 | 46343 | 52730
12 | 11:43.06 | 1:10.73 | 52731 | 58053
13 | 12:54.04 | 1:42.55 | 58054 | 65758
14 | 14:36.59 | 0:53.38 | 65759 | 69771
15 | 15:30.22 | 2:52.36 | 69772 | 82707
16 | 18:22.58 | 0:45.18 | 82708 | 86100
17 | 19:08.01 | 0:51.56 | 86101 | 89981
18 | 19:59.57 | 1:42.06 | 89982 | 97637
19 | 21:41.63 | 0:56.36 | 97638 | 101873
20 | 22:38.24 | 1:35.30 | 101874 | 109028
21 | 24:13.54 | 0:53.66 | 109029 | 113069
22 | 25:07.45 | 0:30.21 | 113070 | 115340
23 | 25:37.66 | 0:50.47 | 115341 | 119137
24 | 26:28.38 | 1:26.57 | 119138 | 125644
25 | 27:55.20 | 2:38.41 | 125645 | 137535
26 | 30:33.61 | 1:32.39 | 137536 | 144474
27 | 32:06.25 | 1:47.07 | 144475 | 152506
28 | 33:53.32 | 2:13.50 | 152507 | 162531
29 | 36:07.07 | 2:01.51 | 162532 | 171657
30 | 38:08.58 | 0:57.17 | 171658 | 175949
31 | 39:06.00 | 2:45.53 | 175950 | 188377
32 | 41:51.53 | 1:57.31 | 188378 | 197183
33 | 43:49.09 | 4:39.50 | 197184 | 218158
Характеристики диапазона извлечения и сообщения об ошибках
Выбранный диапазон
Имя файла N:\Couperin - Chamber Music (complete) - Wentz\CD1\Francois Couperin - Chamber Music (complete), CD1 - Les Nations, Vol. 1.wav
Пиковый уровень 91.1 %
Скорость извлечения 4.0 X
Качество диапазона 100.0 %
CRC теста EF2C7EB0
CRC копии EF2C7EB0
Копирование... OK
Ошибок не произошло
AccurateRip: сводка
Трек 1 отсутствует в базе данных
Трек 2 отсутствует в базе данных
Трек 3 отсутствует в базе данных
Трек 4 отсутствует в базе данных
Трек 5 отсутствует в базе данных
Трек 6 отсутствует в базе данных
Трек 7 отсутствует в базе данных
Трек 8 отсутствует в базе данных
Трек 9 отсутствует в базе данных
Трек 10 отсутствует в базе данных
Трек 11 отсутствует в базе данных
Трек 12 отсутствует в базе данных
Трек 13 отсутствует в базе данных
Трек 14 отсутствует в базе данных
Трек 15 отсутствует в базе данных
Трек 16 отсутствует в базе данных
Трек 17 отсутствует в базе данных
Трек 18 отсутствует в базе данных
Трек 19 отсутствует в базе данных
Трек 20 отсутствует в базе данных
Трек 21 отсутствует в базе данных
Трек 22 отсутствует в базе данных
Трек 23 отсутствует в базе данных
Трек 24 отсутствует в базе данных
Трек 25 отсутствует в базе данных
Трек 26 отсутствует в базе данных
Трек 27 отсутствует в базе данных
Трек 28 отсутствует в базе данных
Трек 29 отсутствует в базе данных
Трек 30 отсутствует в базе данных
Трек 31 отсутствует в базе данных
Трек 32 отсутствует в базе данных
Трек 33 отсутствует в базе данных
Ни одного трека нет в базе AccurateRip
Конец отчёта
==== Контрольная сумма отчёта 11F18119A38D1961CA7D54E9293ED33002A2BD36348C80FE160D9A39B7968260 ====

CD2:Треклист:

Les Nations, Vol. 2
01. Gravement
02. Vivement
03. Gravement, et marque
04. Legerement
05. Rondement
06. Vivement
07. Prelude de m. Couperin (Michael Borgstede)
08. Allemande sans lenteur
09. Courante
10. Seconde Courante plus marque
11. Sarabande tendrement
12. Bouree gayement
13. Gigue d'une legerete moderee
14. Rondeau gayement
15. Chaconne
16. Menuet
17. Gravement
18. Vivement
19. Gravement
20. Vivement, et marque
21. Air gracieusement
22. Second Air
23. Gravement, et marque
24. Legerement
25. Allemande noblement
26. Courante
27. Seconde Courante plus gayement
28. Sarabande tendrement
29. Rondeau gayement
30. Gigue affectueusement, quoy que legerement
Total 48.43

Лог создания рипа:

Exact Audio Copy V1.0 beta 3 from 29. August 2011
Отчёт EAC об извлечении, выполненном 18. января 2015, 18:54
Francois Couperin / Chamber Music (complete), CD2 - Les Nations, Vol. 2
Дисковод: Optiarc DVD RW AD-7260S Adapter: 0 ID: 1
Режим чтения : Достоверность
Использование точного потока : Да
Отключение кэша аудио : Да
Использование указателей C2 : Нет
Коррекция смещения при чтении : 48
Способность читать области Lead-in и Lead-out : Нет
Заполнение пропущенных сэмплов тишиной : Да
Удаление блоков с тишиной в начале и конце : Нет
При вычислениях CRC использовались нулевые сэмплы : Да
Интерфейс : Встроенный Win32-интерфейс для Win NT/2000
Выходной формат : Пользовательский кодировщик
Выбранный битрейт : 896 kBit/s
Качество : Высокий
Добавление ID3-тега : Нет
Утилита сжатия : C:\Program Files\FLAC Frontend\tools\flac.exe
Дополнительные параметры : -V -8 -T "Date=%year%" -T "Genre=%genre%" %source%
TOC извлечённого CD
Трек | Старт | Длительность | Начальный сектор | Конечный сектор
---------------------------------------------------------------------
1 | 0:00.00 | 2:45.32 | 0 | 12406
2 | 2:45.32 | 1:13.08 | 12407 | 17889
3 | 3:58.40 | 1:11.18 | 17890 | 23232
4 | 5:09.58 | 1:48.23 | 23233 | 31355
5 | 6:58.06 | 1:00.35 | 31356 | 35890
6 | 7:58.41 | 2:01.65 | 35891 | 45030
7 | 10:00.31 | 1:18.30 | 45031 | 50910
8 | 11:18.61 | 2:12.13 | 50911 | 60823
9 | 13:30.74 | 1:40.31 | 60824 | 68354
10 | 15:11.30 | 1:40.17 | 68355 | 75871
11 | 16:51.47 | 2:12.41 | 75872 | 85812
12 | 19:04.13 | 0:57.24 | 85813 | 90111
13 | 20:01.37 | 0:51.42 | 90112 | 93978
14 | 20:53.04 | 2:09.57 | 93979 | 103710
15 | 23:02.61 | 5:01.02 | 103711 | 126287
16 | 28:03.63 | 0:47.07 | 126288 | 129819
17 | 28:50.70 | 1:55.41 | 129820 | 138485
18 | 30:46.36 | 0:42.34 | 138486 | 141669
19 | 31:28.70 | 1:15.39 | 141670 | 147333
20 | 32:44.34 | 1:07.54 | 147334 | 152412
21 | 33:52.13 | 0:53.66 | 152413 | 156453
22 | 34:46.04 | 0:45.32 | 156454 | 159860
23 | 35:31.36 | 0:34.07 | 159861 | 162417
24 | 36:05.43 | 0:51.21 | 162418 | 166263
25 | 36:56.64 | 2:03.12 | 166264 | 175500
26 | 39:00.01 | 1:28.53 | 175501 | 182153
27 | 40:28.54 | 1:36.31 | 182154 | 189384
28 | 42:05.10 | 2:36.24 | 189385 | 201108
29 | 44:41.34 | 2:14.16 | 201109 | 211174
30 | 46:55.50 | 1:47.28 | 211175 | 219227
Характеристики диапазона извлечения и сообщения об ошибках
Выбранный диапазон
Имя файла D:\EAC\Francois Couperin - Complete Chamber Music\CD2\Francois Couperin - Chamber Music (complete), CD2 - Les Nations, Vol. 2.wav
Пиковый уровень 88.9 %
Скорость извлечения 4.0 X
Качество диапазона 100.0 %
CRC теста E2DBE751
CRC копии E2DBE751
Копирование... OK
Ошибок не произошло
AccurateRip: сводка
Трек 1 отсутствует в базе данных
Трек 2 отсутствует в базе данных
Трек 3 отсутствует в базе данных
Трек 4 отсутствует в базе данных
Трек 5 отсутствует в базе данных
Трек 6 отсутствует в базе данных
Трек 7 отсутствует в базе данных
Трек 8 отсутствует в базе данных
Трек 9 отсутствует в базе данных
Трек 10 отсутствует в базе данных
Трек 11 отсутствует в базе данных
Трек 12 отсутствует в базе данных
Трек 13 отсутствует в базе данных
Трек 14 отсутствует в базе данных
Трек 15 отсутствует в базе данных
Трек 16 отсутствует в базе данных
Трек 17 отсутствует в базе данных
Трек 18 отсутствует в базе данных
Трек 19 отсутствует в базе данных
Трек 20 отсутствует в базе данных
Трек 21 отсутствует в базе данных
Трек 22 отсутствует в базе данных
Трек 23 отсутствует в базе данных
Трек 24 отсутствует в базе данных
Трек 25 отсутствует в базе данных
Трек 26 отсутствует в базе данных
Трек 27 отсутствует в базе данных
Трек 28 отсутствует в базе данных
Трек 29 отсутствует в базе данных
Трек 30 отсутствует в базе данных
Ни одного трека нет в базе AccurateRip
Конец отчёта
==== Контрольная сумма отчёта 39509760ECB46FFC7B01AE4954A8740764F7E6D5502CFFD098676A08F35C1D02 ====

CD3:Треклист:

Concerts Royaux
Premier Concert
01. Prelude Gravement
02. Allemande Legerement
03. Sarabande mesure
04. Gavotte notes egales et coulees
05. Gigue Legerement
06. Menuet en Trio
Second Concert
07. Prelude gracieusement
08. Allemande Fuguee gayement
09. Air Tendre
10. Air Contre fugue vivement
11. Echos Tendrement
12. Troisieme Concert - Prelude Lentemsement
13. Allemande Legerement
14. Courante
15. Sarabande grave
16. Gavotte
17. Muzette naivement
18. Chaconne Legere
Quatrieme Concert
19. Prelude gravement
20. Allemande Legerement
21. Courante Francoise galament
22. Courante a L'italiene Pointe-coule gayement
23. Sarabande tres tenderement
24. Rigaudon Legerement, et marque
25. Forlane Rondeau gayement
Total 49.36

Лог создания рипа:

Exact Audio Copy V1.0 beta 3 from 29. August 2011
Отчёт EAC об извлечении, выполненном 18. января 2015, 22:12
Francois Couperin / Chamber Music (complete), CD3 - Concerts Royaux
Дисковод: Optiarc DVD RW AD-7260S Adapter: 0 ID: 1
Режим чтения : Достоверность
Использование точного потока : Да
Отключение кэша аудио : Да
Использование указателей C2 : Нет
Коррекция смещения при чтении : 48
Способность читать области Lead-in и Lead-out : Нет
Заполнение пропущенных сэмплов тишиной : Да
Удаление блоков с тишиной в начале и конце : Нет
При вычислениях CRC использовались нулевые сэмплы : Да
Интерфейс : Встроенный Win32-интерфейс для Win NT/2000
Выходной формат : Пользовательский кодировщик
Выбранный битрейт : 896 kBit/s
Качество : Высокий
Добавление ID3-тега : Нет
Утилита сжатия : C:\Program Files\FLAC Frontend\tools\flac.exe
Дополнительные параметры : -V -8 -T "Date=%year%" -T "Genre=%genre%" %source%
TOC извлечённого CD
Трек | Старт | Длительность | Начальный сектор | Конечный сектор
---------------------------------------------------------------------
1 | 0:00.00 | 2:19.38 | 0 | 10462
2 | 2:19.38 | 1:32.04 | 10463 | 17366
3 | 3:51.42 | 2:18.09 | 17367 | 27725
4 | 6:09.51 | 0:39.01 | 27726 | 30651
5 | 6:48.52 | 1:30.49 | 30652 | 37450
6 | 8:19.26 | 1:01.37 | 37451 | 42062
7 | 9:20.63 | 1:19.17 | 42063 | 48004
8 | 10:40.05 | 1:40.03 | 48005 | 55507
9 | 12:20.08 | 3:24.26 | 55508 | 70833
10 | 15:44.34 | 2:30.49 | 70834 | 82132
11 | 18:15.08 | 2:47.49 | 82133 | 94706
12 | 21:02.57 | 1:34.63 | 94707 | 101819
13 | 22:37.45 | 2:04.42 | 101820 | 111161
14 | 24:42.12 | 1:55.41 | 111162 | 119827
15 | 26:37.53 | 2:51.42 | 119828 | 132694
16 | 29:29.20 | 1:39.50 | 132695 | 140169
17 | 31:08.70 | 2:10.24 | 140170 | 149943
18 | 33:19.19 | 2:46.27 | 149944 | 162420
19 | 36:05.46 | 1:32.11 | 162421 | 169331
20 | 37:37.57 | 1:19.11 | 169332 | 175267
21 | 38:56.68 | 1:46.06 | 175268 | 183223
22 | 40:42.74 | 2:26.43 | 183224 | 194216
23 | 43:09.42 | 2:40.17 | 194217 | 206233
24 | 45:49.59 | 1:22.01 | 206234 | 212384
25 | 47:11.60 | 2:23.73 | 212385 | 223182
Характеристики диапазона извлечения и сообщения об ошибках
Выбранный диапазон
Имя файла D:\EAC\Francois Couperin - Complete Chamber Music\CD3\Francois Couperin - Chamber Music (complete), CD3 - Concerts Royaux.wav
Пиковый уровень 68.9 %
Скорость извлечения 4.0 X
Качество диапазона 100.0 %
CRC теста 5C7B9955
CRC копии 5C7B9955
Копирование... OK
Ошибок не произошло
AccurateRip: сводка
Трек 1 отсутствует в базе данных
Трек 2 отсутствует в базе данных
Трек 3 отсутствует в базе данных
Трек 4 отсутствует в базе данных
Трек 5 отсутствует в базе данных
Трек 6 отсутствует в базе данных
Трек 7 отсутствует в базе данных
Трек 8 отсутствует в базе данных
Трек 9 отсутствует в базе данных
Трек 10 отсутствует в базе данных
Трек 11 отсутствует в базе данных
Трек 12 отсутствует в базе данных
Трек 13 отсутствует в базе данных
Трек 14 отсутствует в базе данных
Трек 15 отсутствует в базе данных
Трек 16 отсутствует в базе данных
Трек 17 отсутствует в базе данных
Трек 18 отсутствует в базе данных
Трек 19 отсутствует в базе данных
Трек 20 отсутствует в базе данных
Трек 21 отсутствует в базе данных
Трек 22 отсутствует в базе данных
Трек 23 отсутствует в базе данных
Трек 24 отсутствует в базе данных
Трек 25 отсутствует в базе данных
Ни одного трека нет в базе AccurateRip
Конец отчёта
==== Контрольная сумма отчёта 214387ED5FC5B9B26F68FA6BCD13D072CAB6BA6141D478859F0816F86757C18B ====

CD4:Треклист:

Les Gouts-Reunis, Vol. 1
Cinquiene Concert
01. Prelude Gracieusement
02. Allemande gayement, et les croches egales
03. Sarabande Grave
04. Gavote Coulament, et les croches egales
05. Musete dans le gout de Carillon
Sixieme Concert
06. Gravement et mesure
07. Allemande a 4 tems Legers vivement
08. Sarabande Mesuree Noblement
09. Air de Diable Tres viste
10. Siciliene Temdrement et Loure
Septieme Concert
11. Gravement, et grasiement
12. Allemande Gayement
13. Sarabande Grave
14. Fuguete Legerement
15. Gavote Gayement
16. Siciliene
Huitieme Concert
17. Ouverture
18. Grande Ritournele Gravement
19. Air Noblement
20. Air Tendre
21. Air Leger
22. Loure pesament
23. Air anime, et leger
24. Sarabande grave, et Tender
25. Air Leger
26. Air Tendre Lentement
27. Air de Baccantes tres anime
Total 55.53

Лог создания рипа:

Exact Audio Copy V1.0 beta 3 from 29. August 2011
Отчёт EAC об извлечении, выполненном 18. января 2015, 23:16
Francois Couperin / Chamber Music (complete), CD4 - Les Gouts-Reunis, Vol. 1
Дисковод: Optiarc DVD RW AD-7260S Adapter: 0 ID: 1
Режим чтения : Достоверность
Использование точного потока : Да
Отключение кэша аудио : Да
Использование указателей C2 : Нет
Коррекция смещения при чтении : 48
Способность читать области Lead-in и Lead-out : Нет
Заполнение пропущенных сэмплов тишиной : Да
Удаление блоков с тишиной в начале и конце : Нет
При вычислениях CRC использовались нулевые сэмплы : Да
Интерфейс : Встроенный Win32-интерфейс для Win NT/2000
Выходной формат : Пользовательский кодировщик
Выбранный битрейт : 896 kBit/s
Качество : Высокий
Добавление ID3-тега : Нет
Утилита сжатия : C:\Program Files\FLAC Frontend\tools\flac.exe
Дополнительные параметры : -V -8 -T "Date=%year%" -T "Genre=%genre%" %source%
TOC извлечённого CD
Трек | Старт | Длительность | Начальный сектор | Конечный сектор
---------------------------------------------------------------------
1 | 0:00.00 | 1:14.51 | 0 | 5600
2 | 1:14.51 | 2:46.61 | 5601 | 18111
3 | 4:01.37 | 2:05.44 | 18112 | 27530
4 | 6:07.06 | 1:41.67 | 27531 | 35172
5 | 7:48.73 | 2:06.66 | 35173 | 44688
6 | 9:55.64 | 2:11.18 | 44689 | 54531
7 | 12:07.07 | 2:16.34 | 54532 | 64765
8 | 14:23.41 | 3:09.08 | 64766 | 78948
9 | 17:32.49 | 1:33.19 | 78949 | 85942
10 | 19:05.68 | 3:12.62 | 85943 | 100404
11 | 22:18.55 | 1:26.01 | 100405 | 106855
12 | 23:44.56 | 2:22.22 | 106856 | 117527
13 | 26:07.03 | 2:36.73 | 117528 | 129300
14 | 28:44.01 | 2:38.41 | 129301 | 141191
15 | 31:22.42 | 1:08.55 | 141192 | 146346
16 | 32:31.22 | 2:43.57 | 146347 | 158628
17 | 35:15.04 | 3:35.64 | 158629 | 174817
18 | 38:50.68 | 2:23.45 | 174818 | 185587
19 | 41:14.38 | 2:15.53 | 185588 | 195765
20 | 43:30.16 | 0:56.71 | 195766 | 200036
21 | 44:27.12 | 0:58.53 | 200037 | 204439
22 | 45:25.65 | 2:02.73 | 204440 | 213662
23 | 47:28.63 | 0:52.36 | 213663 | 217598
24 | 48:21.24 | 2:02.39 | 217599 | 226787
25 | 50:23.63 | 1:11.67 | 226788 | 232179
26 | 51:35.55 | 3:12.13 | 232180 | 246592
27 | 54:47.68 | 1:04.63 | 246593 | 251455
Характеристики диапазона извлечения и сообщения об ошибках
Выбранный диапазон
Имя файла D:\EAC\Francois Couperin - Complete Chamber Music\CD4\Francois Couperin - Chamber Music (complete), CD4 - Les Gouts-Reunis, Vol. 1.wav
Пиковый уровень 62.1 %
Скорость извлечения 4.1 X
Качество диапазона 100.0 %
CRC теста DA2B5430
CRC копии DA2B5430
Копирование... OK
Ошибок не произошло
AccurateRip: сводка
Трек 1 отсутствует в базе данных
Трек 2 отсутствует в базе данных
Трек 3 отсутствует в базе данных
Трек 4 отсутствует в базе данных
Трек 5 отсутствует в базе данных
Трек 6 отсутствует в базе данных
Трек 7 отсутствует в базе данных
Трек 8 отсутствует в базе данных
Трек 9 отсутствует в базе данных
Трек 10 отсутствует в базе данных
Трек 11 отсутствует в базе данных
Трек 12 отсутствует в базе данных
Трек 13 отсутствует в базе данных
Трек 14 отсутствует в базе данных
Трек 15 отсутствует в базе данных
Трек 16 отсутствует в базе данных
Трек 17 отсутствует в базе данных
Трек 18 отсутствует в базе данных
Трек 19 отсутствует в базе данных
Трек 20 отсутствует в базе данных
Трек 21 отсутствует в базе данных
Трек 22 отсутствует в базе данных
Трек 23 отсутствует в базе данных
Трек 24 отсутствует в базе данных
Трек 25 отсутствует в базе данных
Трек 26 отсутствует в базе данных
Трек 27 отсутствует в базе данных
Ни одного трека нет в базе AccurateRip
Конец отчёта
==== Контрольная сумма отчёта DD9AF58D282A8EBEF3CD37C67ACFE4E67CEF88241CF6936D370EDE54F0AB356B ====

CD5:Треклист:

Les Gouts-Reunis, Vol. 2
Neuvieme Concert
01. Le charme Gracieusemenеt; et gravement
02. L'enjouement Gayement
03. Les Graces Courante francoise
04. Le, je-ne-Scay-quoy Gayement
05. La Vivacite
06. La Noble Fierte Sarabande Gravement
07. La Douseur amoureusement
08. L'et Coetera ou menuets
Dixieme Concert
09. Gravement et mesure
10. Air Tendre et Loure sans lenteur
11. Plainte
12. La Tromba legerement
Onzieme Concert
13. Majestuesement, sans trop de lenteur
14. Allemande Fierement, sans lenteur
15. Seconde-Allemande plus Legere
16. Courante
17. 2eme Courante
18. Sarabande tres grave
19. Gigue Louree
20. Rondeau Legerement et galament
Douzieme Concert
21. Pointe-coule
22. Badinage
23. Lentement
24. Air gracieusement
Treizieme Concert
25. Vivement
26. Air agreablement
27. Sarabande Tendrement
28. Chaconne Legere
Quatorzieme Concert
29. Gravement
30. Allemande vivement
31. Sarabande, grave
32. Fugete
Total 63.53

Лог создания рипа:

Exact Audio Copy V1.0 beta 3 from 29. August 2011
Отчёт EAC об извлечении, выполненном 19. января 2015, 0:24
Francois Couperin / Chamber Music (complete), CD 5 - Les Gouts-Reunis, Vol. 2
Дисковод: Optiarc DVD RW AD-7260S Adapter: 0 ID: 1
Режим чтения : Достоверность
Использование точного потока : Да
Отключение кэша аудио : Да
Использование указателей C2 : Нет
Коррекция смещения при чтении : 48
Способность читать области Lead-in и Lead-out : Нет
Заполнение пропущенных сэмплов тишиной : Да
Удаление блоков с тишиной в начале и конце : Нет
При вычислениях CRC использовались нулевые сэмплы : Да
Интерфейс : Встроенный Win32-интерфейс для Win NT/2000
Выходной формат : Пользовательский кодировщик
Выбранный битрейт : 896 kBit/s
Качество : Высокий
Добавление ID3-тега : Нет
Утилита сжатия : C:\Program Files\FLAC Frontend\tools\flac.exe
Дополнительные параметры : -V -8 -T "Date=%year%" -T "Genre=%genre%" %source%
TOC извлечённого CD
Трек | Старт | Длительность | Начальный сектор | Конечный сектор
---------------------------------------------------------------------
1 | 0:00.00 | 1:36.38 | 0 | 7237
2 | 1:36.38 | 2:35.71 | 7238 | 18933
3 | 4:12.34 | 2:19.38 | 18934 | 29396
4 | 6:31.72 | 1:49.59 | 29397 | 37630
5 | 8:21.56 | 2:41.25 | 37631 | 49730
6 | 11:03.06 | 2:17.42 | 49731 | 60047
7 | 13:20.48 | 2:06.73 | 60048 | 69570
8 | 15:27.46 | 2:29.06 | 69571 | 80751
9 | 17:56.52 | 1:30.63 | 80752 | 87564
10 | 19:27.40 | 2:09.15 | 87565 | 97254
11 | 21:36.55 | 2:54.19 | 97255 | 110323
12 | 24:30.74 | 1:28.39 | 110324 | 116962
13 | 25:59.38 | 1:29.13 | 116963 | 123650
14 | 27:28.51 | 2:40.38 | 123651 | 135688
15 | 30:09.14 | 1:40.73 | 135689 | 143261
16 | 31:50.12 | 1:30.21 | 143262 | 150032
17 | 33:20.33 | 1:41.18 | 150033 | 157625
18 | 35:01.51 | 3:14.23 | 157626 | 172198
19 | 38:15.74 | 2:23.38 | 172199 | 182961
20 | 40:39.37 | 2:07.47 | 182962 | 192533
21 | 42:47.09 | 1:09.15 | 192534 | 197723
22 | 43:56.24 | 1:37.68 | 197724 | 205066
23 | 45:34.17 | 0:57.03 | 205067 | 209344
24 | 46:31.20 | 1:54.53 | 209345 | 217947
25 | 48:25.73 | 0:53.66 | 217948 | 221988
26 | 49:19.64 | 2:31.02 | 221989 | 233315
27 | 51:50.66 | 2:12.69 | 233316 | 243284
28 | 54:03.60 | 1:58.53 | 243285 | 252187
29 | 56:02.38 | 1:44.72 | 252188 | 260059
30 | 57:47.35 | 2:00.08 | 260060 | 269067
31 | 59:47.43 | 2:21.49 | 269068 | 279691
32 | 62:09.17 | 1:43.29 | 279692 | 287445
Характеристики диапазона извлечения и сообщения об ошибках
Выбранный диапазон
Имя файла D:\EAC\Francois Couperin - Complete Chamber Music\CD5\Francois Couperin - Chamber Music (complete), CD 5 - Les Gouts-Reunis, Vol. 2.wav
Пиковый уровень 63.8 %
Скорость извлечения 4.3 X
Качество диапазона 99.9 %
CRC теста 32E5DD3E
CRC копии 32E5DD3E
Копирование... OK
Ошибок не произошло
AccurateRip: сводка
Трек 1 отсутствует в базе данных
Трек 2 отсутствует в базе данных
Трек 3 отсутствует в базе данных
Трек 4 отсутствует в базе данных
Трек 5 отсутствует в базе данных
Трек 6 отсутствует в базе данных
Трек 7 отсутствует в базе данных
Трек 8 отсутствует в базе данных
Трек 9 отсутствует в базе данных
Трек 10 отсутствует в базе данных
Трек 11 отсутствует в базе данных
Трек 12 отсутствует в базе данных
Трек 13 отсутствует в базе данных
Трек 14 отсутствует в базе данных
Трек 15 отсутствует в базе данных
Трек 16 отсутствует в базе данных
Трек 17 отсутствует в базе данных
Трек 18 отсутствует в базе данных
Трек 19 отсутствует в базе данных
Трек 20 отсутствует в базе данных
Трек 21 отсутствует в базе данных
Трек 22 отсутствует в базе данных
Трек 23 отсутствует в базе данных
Трек 24 отсутствует в базе данных
Трек 25 отсутствует в базе данных
Трек 26 отсутствует в базе данных
Трек 27 отсутствует в базе данных
Трек 28 отсутствует в базе данных
Трек 29 отсутствует в базе данных
Трек 30 отсутствует в базе данных
Трек 31 отсутствует в базе данных
Трек 32 отсутствует в базе данных
Ни одного трека нет в базе AccurateRip
Конец отчёта
==== Контрольная сумма отчёта BEB4C8EE3E36BAF3F95DCBCA48D917F320692FFDDD53BBE2CF17321690D1CEB8 ====

CD6:Треклист:

Le Parnasse ou L'Apotheose de Corelli
Grande Sonate, en Trio
01. Gravement
02. Gayment
03. Moderement
04. Vivement
05. Notes egales et Coulees
06. Vivement
07. Gayment
Concert Instrumental sous le titre D'Apotheose Monsier de Lully
08. Gravement
09. Gracieusement
10. Vol
11. Noblement
12. Rumeur Souteraine
13. Dolemment
14. Tres Legerement
15. Accueil entre-Doux
16. Gracieument
17. D'Ouverture
18. Lulli et Corelli
19. Muses italienes gravement
20. Saillie vivement
21. Rondement
22. Vivement
Total 42.05

Лог создания рипа:

Exact Audio Copy V1.0 beta 3 from 29. August 2011
Отчёт EAC об извлечении, выполненном 19. января 2015, 16:58
Francois Couperin / Chamber Music (complete), CD 6 - L'Apotheose de Corelli & de Lulli
Дисковод: Optiarc DVD RW AD-7260S Adapter: 0 ID: 1
Режим чтения : Достоверность
Использование точного потока : Да
Отключение кэша аудио : Да
Использование указателей C2 : Нет
Коррекция смещения при чтении : 48
Способность читать области Lead-in и Lead-out : Нет
Заполнение пропущенных сэмплов тишиной : Да
Удаление блоков с тишиной в начале и конце : Нет
При вычислениях CRC использовались нулевые сэмплы : Да
Интерфейс : Встроенный Win32-интерфейс для Win NT/2000
Выходной формат : Пользовательский кодировщик
Выбранный битрейт : 896 kBit/s
Качество : Высокий
Добавление ID3-тега : Нет
Утилита сжатия : C:\Program Files\FLAC Frontend\tools\flac.exe
Дополнительные параметры : -V -8 -T "Date=%year%" -T "Genre=%genre%" %source%
TOC извлечённого CD
Трек | Старт | Длительность | Начальный сектор | Конечный сектор
---------------------------------------------------------------------
1 | 0:00.00 | 1:43.15 | 0 | 7739
2 | 1:43.15 | 1:55.06 | 7740 | 16370
3 | 3:38.21 | 1:31.51 | 16371 | 23246
4 | 5:09.72 | 0:57.37 | 23247 | 27558
5 | 6:07.34 | 1:33.33 | 27559 | 34566
6 | 7:40.67 | 0:38.48 | 34567 | 37464
7 | 8:19.40 | 2:02.53 | 37465 | 46667
8 | 10:22.18 | 2:24.54 | 46668 | 57521
9 | 12:46.72 | 2:08.62 | 57522 | 67183
10 | 14:55.59 | 0:27.37 | 67184 | 69245
11 | 15:23.21 | 2:04.14 | 69246 | 78559
12 | 17:27.35 | 0:26.71 | 78560 | 80580
13 | 17:54.31 | 2:25.62 | 80581 | 91517
14 | 20:20.18 | 1:41.32 | 91518 | 99124
15 | 22:01.50 | 2:11.18 | 99125 | 108967
16 | 24:12.68 | 2:51.42 | 108968 | 121834
17 | 27:04.35 | 3:58.25 | 121835 | 139709
18 | 31:02.60 | 4:49.38 | 139710 | 161422
19 | 35:52.23 | 1:53.45 | 161423 | 169942
20 | 37:45.68 | 1:19.59 | 169943 | 175926
21 | 39:05.52 | 1:24.33 | 175927 | 182259
22 | 40:30.10 | 1:34.42 | 182260 | 189351
Характеристики диапазона извлечения и сообщения об ошибках
Выбранный диапазон
Имя файла D:\EAC\Francois Couperin - Complete Chamber Music\CD6\Francois Couperin - Chamber Music (complete), CD 6 - L'Apotheose de Corelli & de Lulli.wav
Пиковый уровень 82.0 %
Скорость извлечения 3.9 X
Качество диапазона 100.0 %
CRC теста C7A77675
CRC копии C7A77675
Копирование... OK
Ошибок не произошло
AccurateRip: сводка
Трек 1 отсутствует в базе данных
Трек 2 отсутствует в базе данных
Трек 3 отсутствует в базе данных
Трек 4 отсутствует в базе данных
Трек 5 отсутствует в базе данных
Трек 6 отсутствует в базе данных
Трек 7 отсутствует в базе данных
Трек 8 отсутствует в базе данных
Трек 9 отсутствует в базе данных
Трек 10 отсутствует в базе данных
Трек 11 отсутствует в базе данных
Трек 12 отсутствует в базе данных
Трек 13 отсутствует в базе данных
Трек 14 отсутствует в базе данных
Трек 15 отсутствует в базе данных
Трек 16 отсутствует в базе данных
Трек 17 отсутствует в базе данных
Трек 18 отсутствует в базе данных
Трек 19 отсутствует в базе данных
Трек 20 отсутствует в базе данных
Трек 21 отсутствует в базе данных
Трек 22 отсутствует в базе данных
Ни одного трека нет в базе AccurateRip
Конец отчёта
==== Контрольная сумма отчёта 56EF68023332157164A0BF0BCB721DB1CEE1D9F73EC6D9EA39EC581934678E07 ====

CD7:Треклист:

01. La Sultane
02. La Superbe
03. La Steinquerque
1ere Suite:
04. I. Prelude Gravement
05. II. Allemande Legere
06. III. Courante
07. IV. Sarabande Grave
08. V. Gavotte
09. VI. Gigue Gayment
10. VII. Passacaille ou Chaconne
2eme Suite:
11. I. Prelude gravement
12. II. Fugette
13. III. Pompe Funebre tres gravement
14. IV. La Chemise-blanche. tres viste
15. Le Rossignol-en-Amour
Total 60.02

Лог создания рипа:

Exact Audio Copy V1.0 beta 3 from 29. August 2011
Отчёт EAC об извлечении, выполненном 19. января 2015, 19:29
Francois Couperin / Chamber Music (complete) - CD7 - La Sultane, La Superbe, La Steinquerque, Pieces de violes
Дисковод: Optiarc DVD RW AD-7260S Adapter: 0 ID: 1
Режим чтения : Достоверность
Использование точного потока : Да
Отключение кэша аудио : Да
Использование указателей C2 : Нет
Коррекция смещения при чтении : 48
Способность читать области Lead-in и Lead-out : Нет
Заполнение пропущенных сэмплов тишиной : Да
Удаление блоков с тишиной в начале и конце : Нет
При вычислениях CRC использовались нулевые сэмплы : Да
Интерфейс : Встроенный Win32-интерфейс для Win NT/2000
Выходной формат : Пользовательский кодировщик
Выбранный битрейт : 896 kBit/s
Качество : Высокий
Добавление ID3-тега : Нет
Утилита сжатия : C:\Program Files\FLAC Frontend\tools\flac.exe
Дополнительные параметры : -V -8 -T "Date=%year%" -T "Genre=%genre%" %source%
TOC извлечённого CD
Трек | Старт | Длительность | Начальный сектор | Конечный сектор
---------------------------------------------------------------------
1 | 0:00.00 | 7:40.59 | 0 | 34558
2 | 7:40.59 | 6:46.48 | 34559 | 65056
3 | 14:27.32 | 6:57.31 | 65057 | 96362
4 | 21:24.63 | 2:53.03 | 96363 | 109340
5 | 24:17.66 | 1:52.22 | 109341 | 117762
6 | 26:10.13 | 1:37.61 | 117763 | 125098
7 | 27:47.74 | 3:06.17 | 125099 | 139065
8 | 30:54.16 | 1:52.64 | 139066 | 147529
9 | 32:47.05 | 1:46.20 | 147530 | 155499
10 | 34:33.25 | 4:57.24 | 155500 | 177798
11 | 39:30.49 | 2:11.18 | 177799 | 187641
12 | 41:41.67 | 1:44.30 | 187642 | 195471
13 | 43:26.22 | 5:22.43 | 195472 | 219664
14 | 48:48.65 | 5:04.28 | 219665 | 242492
15 | 53:53.18 | 6:09.15 | 242493 | 270182
Характеристики диапазона извлечения и сообщения об ошибках
Выбранный диапазон
Имя файла D:\EAC\Francois Couperin - Complete Chamber Music\CD7\Francois Couperin - Chamber Music (complete) - CD7 - La Sultane, La Superbe, La Steinquerque, Pieces de violes.wav
Пиковый уровень 86.4 %
Скорость извлечения 4.2 X
Качество диапазона 100.0 %
CRC теста 9DACCE6E
CRC копии 9DACCE6E
Копирование... OK
Ошибок не произошло
AccurateRip: сводка
Трек 1 отсутствует в базе данных
Трек 2 отсутствует в базе данных
Трек 3 отсутствует в базе данных
Трек 4 отсутствует в базе данных
Трек 5 отсутствует в базе данных
Трек 6 отсутствует в базе данных
Трек 7 отсутствует в базе данных
Трек 8 отсутствует в базе данных
Трек 9 отсутствует в базе данных
Трек 10 отсутствует в базе данных
Трек 11 отсутствует в базе данных
Трек 12 отсутствует в базе данных
Трек 13 отсутствует в базе данных
Трек 14 отсутствует в базе данных
Трек 15 отсутствует в базе данных
Ни одного трека нет в базе AccurateRip
Конец отчёта
==== Контрольная сумма отчёта 9DDDF95CBF8BADF58364194DB07718B32DBE82403DD46DFF98F9E1A13E556743 ====



Показать сообщения:    

Текущее время: 03-Дек 20:44

Часовой пояс: UTC + 3


Вы не можете начинать темы
Вы не можете отвечать на сообщения
Вы не можете редактировать свои сообщения
Вы не можете удалять свои сообщения
Вы не можете голосовать в опросах
Вы не можете прикреплять файлы к сообщениям
Вы не можете скачивать файлы