(Classical, period) Фелисьен Давид – Фортепианное трио № 1, Струнный квартет № 3 и проч. / Felicien David – Le Souvenir (Ensemble Baroque de Limoges, Quatuor Mosaiques) - 2011, FLAC (image+.cue) lossless


 

[Цитировать]

Фелисьен Давид – Фортепианное трио № 1, Струнный квартет № 3 и проч. / Félicien David – Le Souvenir; arrangements by Henri Vieuxtemps, Carl Schuberth, Philippe Musard, Sebastian Lee (Ensemble Baroque de Limoges: Andrés Gabetta, Christophe Coin, Jean-Jacques Dünki; Quatuor Mosaïques: Erich Höbarth, Andrea Bischof, Anita Mitterer)
Жанр: Classical, period
Страна-производитель диска: Франция
Год издания диска: 2011
Издатель (лейбл): LABORIE records
Номер по каталогу: LC24585 (если это номер).
Дата записи: май 2010 г., Париж (10 — 13); октябрь 2010 г., Базель (1 — 9, 14).
Аудиокодек: FLAC
Тип рипа: image+.cue
Битрейт аудио: lossless
Продолжительность: 01:18:29
Источник: odeonmusic
Наличие сканов в содержимом раздачи: да
Треклист:-Фелисьен Сезар Давид (1810 — 1876).
Фортепианное трио № 1 Es-dur (опубл. 1857).
01. I. Allegro moderato [07:24].
02. II. Molto adagio [08:25].
03. III. Finale. Allegretto [09:46].
Струнный квартет № 3 d-moll (после 1869?).
10. I. Allegro moderato [05:29].
11. II. Adagio [05:58].
12. III. Scherzo. Allegretto [04:14].
13. IV. Finale. Largo. — Allegro leggiero [05:01].
Двенадцать пьес (mélodies) для фортепиано и виолончели (до 1844).
06. Тетрадь III: № 6 a-moll. Каприз [sic!] (Le caprice). Allegretto moderato [04:40].
14. Тетрадь VI: № 12 d-moll. Воспоминание (Le souvenir). Andante espressivo [04:11].
«Размышление» (La pensée), мелодический вальс (mélodie-valse) Es-dur для фортепиано (опубл. 1830-е/1845?).
05. Andante grazioso [02:09].
«Отсутствие» (L'absence), песня без слов b-moll для фортепиано (опубл. 1830-е/1845?).
09. Andante [06:04].
Фелисьен Давид — Анри Вьетан (1820 — 1881) — Карл Богданович Шуберт (1811 — 1863).
«Ночь» Es-dur из «Пустыни» (перв. исп. 1844) Фелисьена Давида, переложение для альта с фортепиано А. Вьетана, виолончельная партия К. Б. Шуберта.
04. Larghetto [05:36].
Фелисьен Давид — Себастьян Ли (1805 — 1887).
«Воспоминание о Геркулануме» F-dur на темы оперы [«Геркуланум»] Фелисьена Давида (перв. пост. 1859), салонная пьеса для виолончели с фортепиано (опубл. 1860).
08. Andante. — Allegro grazioso. — Allegro moderato [05:14].
Фелисьен Давид — Филипп Мюзар (1792 — 1859).
Вальс a-moll из оперы «Лалла-Рук» (перв. пост. 1862) Фелисьена Давида, составлен Ф. Мюзаром, переложение для фортепиано Эмиля Дегранжа.
07. Andante. — Allegro non troppo. — Valse [04:16].-Исполнители:
Ensemble Baroque de Limoges:
Andrés Gabetta (скрипка, XVIII век),
Christophe Coin (виолончель, ок. 1720),
Jean-Jacques Dünki (фортепиано, Érard, 1850; пианино, Kunz, ок. 1845).
Quatuor Mosaïques:
Erich Höbarth (скрипка, 1683),
Andrea Bischof (скрипка, конец XVIII века),
Anita Mitterer (альт, 1725),
Christophe Coin (виолончель, ок. 1720).

Лог создания рипа

Exact Audio Copy V1.0 beta 3 from 29. August 2011
EAC extraction logfile from 11. January 2013, 16:15
Various Artists / Félicien David - Trio, Quartet & other works for piano - VA
Used drive : TSSTcorpCDDVDW SH-222BB Adapter: 2 ID: 1
Read mode : SecureUtilize accurate stream : YesDefeat audio cache : YesMake use of C2 pointers : No
Read offset correction : 6Overread into Lead-In and Lead-Out : NoFill up missing offset samples with silence : YesDelete leading and trailing silent blocks : NoNull samples used in CRC calculations : YesUsed interface : Native Win32 interface for Win NT & 2000
Used output format : User Defined EncoderSelected bitrate : 1024 kBit/sQuality : HighAdd ID3 tag : NoCommand line compressor : C:\Program Files\Exact Audio Copy\Flac\flac.exeAdditional command line options : -8 -V -T "TITLE=%title%" -T "ARTIST=%artist%" -T "ALBUMARTIST=%albumartist%" -T "ALBUM=%albumtitle%" -T "DATE=%year%" -T "TRACKNUMBER=%tracknr%" -T "TRACKTOTAL=%numtracks%" -T "GENRE=%genre%" -T "COMMENT=%comment%" -T "PERFORMER=%albuminterpret%" -T "COMPOSER=%composer%" %source% -o %dest%
TOC of the extracted CD
Track | Start | Length | Start sector | End sector --------------------------------------------------------- 1 | 0:00.00 | 7:23.59 | 0 | 33283 2 | 7:23.59 | 8:24.70 | 33284 | 71153 3 | 15:48.54 | 9:46.08 | 71154 | 115111 4 | 25:34.62 | 5:35.63 | 115112 | 140299 5 | 31:10.50 | 2:09.29 | 140300 | 150003 6 | 33:20.04 | 4:40.28 | 150004 | 171031 7 | 38:00.32 | 4:16.24 | 171032 | 190255 8 | 42:16.56 | 5:13.52 | 190256 | 213782 9 | 47:30.33 | 6:04.31 | 213783 | 241113 10 | 53:34.64 | 5:29.14 | 241114 | 265802 11 | 59:04.03 | 5:58.09 | 265803 | 292661 12 | 65:02.12 | 4:13.53 | 292662 | 311689 13 | 69:15.65 | 5:01.00 | 311690 | 334264 14 | 74:16.65 | 4:10.54 | 334265 | 353068
Range status and errors
Selected range
Filename G:\Ripped general\[9261] Félicien David – Trio, Quartet & other works for piano – VA\Félicien David - Trio, Quartet & other works for piano - VA.wav
Peak level 95.4 % Extraction speed 5.1 X Range quality 100.0 % Test CRC 5528A7D1 Copy CRC 5528A7D1 Copy OK
No errors occurred
AccurateRip summary
Track 1 accurately ripped (confidence 1) [40D03780] (AR v2)Track 2 accurately ripped (confidence 1) [A3298D2E] (AR v2)Track 3 accurately ripped (confidence 1) [6AD0DEB6] (AR v2)Track 4 accurately ripped (confidence 1) [8EE17AFD] (AR v2)Track 5 accurately ripped (confidence 1) [1EE55966] (AR v2)Track 6 accurately ripped (confidence 1) [F2B177DE] (AR v2)Track 7 accurately ripped (confidence 1) [DEC53659] (AR v2)Track 8 accurately ripped (confidence 1) [A46CF78C] (AR v2)Track 9 accurately ripped (confidence 1) [2B3344B7] (AR v2)Track 10 accurately ripped (confidence 1) [6A2A5021] (AR v2)Track 11 accurately ripped (confidence 1) [5D98B8D9] (AR v2)Track 12 accurately ripped (confidence 1) [258603FC] (AR v2)Track 13 accurately ripped (confidence 1) [C9EE86A3] (AR v2)Track 14 accurately ripped (confidence 1) [4FF8D515] (AR v2)
All tracks accurately ripped
End of status report

Содержание индексной карты (.CUE)

REM GENRE ClassicalREM DISCID C712630EREM COMMENT "ExactAudioCopy v1.0b3"PERFORMER "Ensemble Baroque de Limoges & Quatuor Mosaiques"TITLE "Felicien David – Trio, Quartet etc."FILE "Felicien David – Trio, Quartet etc..flac" WAVE TRACK 01 AUDIO TITLE "Premier trio - I. Allegro moderato" PERFORMER "Ensemble Baroque de Limoges" INDEX 01 00:00:00 TRACK 02 AUDIO TITLE "Premier trio - II. Molto adagio" PERFORMER "Ensemble Baroque de Limoges" INDEX 01 07:23:59 TRACK 03 AUDIO TITLE "Premier trio - III. Finale (Allegretto)" PERFORMER "Ensemble Baroque de Limoges" INDEX 01 15:48:54 TRACK 04 AUDIO TITLE "Henri Vieuxtemps - La nuit from Ode-Symphonie 'Le Desert' (from F. David) for cello and piano" PERFORMER "Ensemble Baroque de Limoges" INDEX 01 25:34:62 TRACK 05 AUDIO TITLE "Pensee - melodie-valse for piano" PERFORMER "Ensemble Baroque de Limoges" INDEX 01 31:10:50 TRACK 06 AUDIO TITLE "Le caprice - melodie for cello and piano" PERFORMER "Ensemble Baroque de Limoges" INDEX 01 33:20:04 TRACK 07 AUDIO TITLE "Philippe Musard - Valse de Lalla-Roukh (opera-comique de F. David) for piano" PERFORMER "Ensemble Baroque de Limoges" INDEX 01 38:00:32 TRACK 08 AUDIO TITLE "Sebastian Lee - Souvenir d'Herculanum (opera de F. David) for cello and piano" PERFORMER "Ensemble Baroque de Limoges" INDEX 01 42:16:56 TRACK 09 AUDIO TITLE "L'absence - romance sans paroles for piano" PERFORMER "Ensemble Baroque de Limoges" INDEX 01 47:30:33 TRACK 10 AUDIO TITLE "Troisieme Quatuor - I. Allegro moderato" PERFORMER "Quatuor Mosaiques" INDEX 01 53:34:64 TRACK 11 AUDIO TITLE "Troisieme Quatuor - II. Adagio" PERFORMER "Quatuor Mosaiques" INDEX 01 59:04:03 TRACK 12 AUDIO TITLE "Troisieme Quatuor - III. Scherzo (Allegretto)" PERFORMER "Quatuor Mosaiques" INDEX 01 65:02:12 TRACK 13 AUDIO TITLE "Troisieme Quatuor - IV. Finale (Largo - Allegro leggiero)" PERFORMER "Quatuor Mosaiques" INDEX 01 69:15:65 TRACK 14 AUDIO TITLE "Le souvenir - melodie for cello and piano" PERFORMER "Ensemble Baroque de Limoges" INDEX 01 74:16:65

Вариант индексной карты (.CUE) с выставленными зазорами

REM GENRE ClassicalREM DISCID C712630EREM COMMENT "ExactAudioCopy v1.0b3"PERFORMER "Ensemble Baroque de Limoges & Quatuor Mosaiques"TITLE "Felicien David – Trio, Quartet etc."FILE "Felicien David – Trio, Quartet etc..flac" WAVE TRACK 01 AUDIO TITLE "Premier trio - I. Allegro moderato" PERFORMER "Ensemble Baroque de Limoges" INDEX 00 00:00:00 INDEX 01 00:02:41 TRACK 02 AUDIO TITLE "Premier trio - II. Molto adagio" PERFORMER "Ensemble Baroque de Limoges" INDEX 01 07:23:59 TRACK 03 AUDIO TITLE "Premier trio - III. Finale (Allegretto)" PERFORMER "Ensemble Baroque de Limoges" INDEX 00 15:46:53 INDEX 01 15:48:54 TRACK 04 AUDIO TITLE "Henri Vieuxtemps - La nuit from Ode-Symphonie 'Le Desert' (from F. David) for cello and piano" PERFORMER "Ensemble Baroque de Limoges" INDEX 00 25:28:28 INDEX 01 25:34:62 TRACK 05 AUDIO TITLE "Pensee - melodie-valse for piano" PERFORMER "Ensemble Baroque de Limoges" INDEX 00 31:05:49 INDEX 01 31:10:50 TRACK 06 AUDIO TITLE "Le caprice - melodie for cello and piano" PERFORMER "Ensemble Baroque de Limoges" INDEX 00 33:11:63 INDEX 01 33:20:04 TRACK 07 AUDIO TITLE "Philippe Musard - Valse de Lalla-Roukh (opera-comique de F. David) for piano" PERFORMER "Ensemble Baroque de Limoges" INDEX 00 37:55:33 INDEX 01 38:00:32 TRACK 08 AUDIO TITLE "Sebastian Lee - Souvenir d'Herculanum (opera de F. David) for cello and piano" PERFORMER "Ensemble Baroque de Limoges" INDEX 00 42:11:33 INDEX 01 42:16:56 TRACK 09 AUDIO TITLE "L'absence - romance sans paroles for piano" PERFORMER "Ensemble Baroque de Limoges" INDEX 00 47:24:58 INDEX 01 47:30:33 TRACK 10 AUDIO TITLE "Troisieme Quatuor - I. Allegro moderato" PERFORMER "Quatuor Mosaiques" INDEX 00 53:25:42 INDEX 01 53:34:64 TRACK 11 AUDIO TITLE "Troisieme Quatuor - II. Adagio" PERFORMER "Quatuor Mosaiques" INDEX 00 59:02:11 INDEX 01 59:04:03 TRACK 12 AUDIO TITLE "Troisieme Quatuor - III. Scherzo (Allegretto)" PERFORMER "Quatuor Mosaiques" INDEX 00 65:01:27 INDEX 01 65:02:12 TRACK 13 AUDIO TITLE "Troisieme Quatuor - IV. Finale (Largo - Allegro leggiero)" PERFORMER "Quatuor Mosaiques" INDEX 01 69:15:65 TRACK 14 AUDIO TITLE "Le souvenir - melodie for cello and piano" PERFORMER "Ensemble Baroque de Limoges" INDEX 00 74:11:05 INDEX 01 74:16:65



Показать сообщения:    

Текущее время: 20-Янв 14:55

Часовой пояс: UTC + 3


Вы не можете начинать темы
Вы не можете отвечать на сообщения
Вы не можете редактировать свои сообщения
Вы не можете удалять свои сообщения
Вы не можете голосовать в опросах
Вы не можете прикреплять файлы к сообщениям
Вы не можете скачивать файлы