(Classical) Ludwig van Beethoven - Complete String Quartets 7 CDs (Alban Berg Quartett; studio recordings 1978-1983; viola Hatto Beyerle, then Thomas Kakuska) - 2012, FLAC (tracks+.cue) lossless


 

[Цитировать]

Ludwig van Beethoven - Complete String Quartets 7 CDs (Alban Berg Quartett; studio recordings 1978-1983; viola Hatto Beyerle, then Thomas Kakuska)
Жанр: Classical
Страна-производитель диска: EU
Год издания диска: 2012
Издатель (лейбл): Warner Classics, Warner Music UK
Номер по каталогу: 50999 7 04413 2 1
Дата записи: 1978-1983
Аудиокодек: FLAC
Тип рипа: tracks+.cue
Битрейт аудио: lossless
Продолжительность: 8:17:39 (1:07:19 + 1:13:11 + 1:12:27 + 1:15:40 + 1:10:06 + 1:07:08 + 1:11:48)
Источник: собственный рип
Наличие сканов в содержимом раздачи: да
Треклист (с исполнителями):

Disk 1 - String Quartet No. 1 in F, Op. 18 No. 1; String Quartet No. 7 in F, Op. 59 No. 1 'Rasumovsky

String Quartet No. 1 in F, Op. 18 No. 101. I. Allegro con brio - 08:4502. II. Adagio affettuoso ed appassionato - 09:2403. III. Scherzo- Allegro molto - Trio - 03:1904. IV. Allegro - 06:21
String Quartet No. 7 in F, Op. 59 No. 1 'Rasumovsky'05. I. Allegro - 09:2706. II. Allegretto vivace e sempre scherzando - 08:4207. III. Adagio molto e mesto - 12:5608. IV. Allegro (Thème russe) - 8:11
Alban Berg QuartettGünter Pichler, Gerhard Schulz, violinHatto Beyerle, violaValentin Erben, cello

Disk 2 - String Quartet No. 2 in G, Op. 18 No. 2; String Quartet No. 6 in B flat, Op. 18 No. 6; String Quartet No. 16 in F, Op. 135

String Quartet No. 2 in G, Op. 18 No. 201. I. Allegro - 07:5802. II. Adagio cantabile - Allegro - Tempo I - 06:2903. III. Scherzo- Allegro - Trio - 04:2404. IV. Allegro molto, quasi presto - 05:15
String Quartet No. 6 in B flat, Op. 18 No. 605. I. Allegro con brio - 05:4406. II. Adagio ma non troppo.wav - 06:5707. III. Scherzo- Allegro - Trio - 03:0808. IV. Adagio (La Malinconia) - Allegretto quasi allegro - 08:30
Alban Berg QuartettGünter Pichler, Gerhard Schulz, violinHatto Beyerle, violaValentin Erben, cello
String Quartet No. 16 in F, Op. 13509. I. Allegretto 06:1810. II. Vivace - 03:2411. III. Lento assai, cantante e tranquillo - 07:4612. IV. Grave, ma non troppo tratto - Allegro - 06:53
Alban Berg QuartettGünter Pichler, Gerhard Schulz, violinThomas Kakuska, violaValentin Erben, cello

Disk 3 - String Quartet No. 3 in d, Op. 18 No. 3; String Quartet No. 5 in A, Op. 18 No. 5; String Quartet No. 11 in f, Op. 95 'Serioso'

String Quartet No. 3 in d, Op. 18 No. 301. I. Allegro - 07:3502. II. Andante con moto - 07:5303. III. Allegro - 02:5904. IV. Presto - 06:28
String Quartet No. 5 in A, Op. 18 No. 505. I. Allegro - 06:3806. II. Menuetto - Trio - 04:2107. III. Andante cantabile - 09:5308. IV. Allegro.wav - 06:46
String Quartet No. 11 in f, Op. 95 'Serioso'09. I. Allegro con brio - 03:5310. II. Allegretto ma non troppo - 06:2711. III. Allegro assai vivace, ma serioso - 04:2312. IV. Larghetto espressivo - Allegretto agitato - Allegro - 04:49
Alban Berg QuartettGünter Pichler, Gerhard Schulz, violinHatto Beyerle, violaValentin Erben, cello

Disk 4 - String Quartet No. 4 in c, Op. 18 No. 4; String Quartet No. 13 in B flat, Op. 130; Große Fuge in B flat, Op. 133

String Quartet No. 4 in c, Op. 18 No. 401. I. Allegro ma non tanto - 08:2502. II. Scherzo- Andante scherzoso quasi allegretto - 06:5703. III. Menuetto- Allegretto - Trio - 03:2204. IV. Allegro - 04:25
Alban Berg QuartettGünter Pichler, Gerhard Schulz, violinHatto Beyerle, violaValentin Erben, cello
String Quartet No. 13 in B flat, Op. 13005. I. Adagio ma non troppo - Allegro - 09:4906. II. Presto - 01:5807. III. Andante con moto, ma non troppo - 06:5408. IV. Alla danza tedesca- Allegro assai - 02:5709. V. Cavatina- Adagio molto espressivo - 07:07
10. Große Fuge in B flat, Op. 133 - 15:34
String Quartet No. 13 in B flat, Op. 13011. VI. Finale- Allegro - 07:50
Alban Berg QuartettGünter Pichler, Gerhard Schulz, violinThomas Kakuska, violaValentin Erben, cello

Disk 5 - String Quartet No. 8 in e, Op. 59 No. 2 'Rasumovsky'; String Quartet No. 12 in E flat, Op. 127

String Quartet No. 8 in e, Op. 59 No. 2 'Rasumovsky'01. I. Allegro - 08:5702. II. Molto adagio - 12:2103. III. Allegretto - 06:2604. IV. Finale- Presto - 05:09
Alban Berg QuartettGünter Pichler, Gerhard Schulz, violinHatto Beyerle, violaValentin Erben, cello
String Quartet No. 12 in E flat, Op. 12705. I. Maestoso - Allegro - 06:3906. II. Adagio ma non troppo e molto cantabile - 16:3807. III. Scherzando vivace - 06:4908. IV. Finale - 06:49
Alban Berg QuartettGünter Pichler, Gerhard Schulz, violinThomas Kakuska, violaValentin Erben, cello

Disk 6 - String Quartet No. 9 in C, Op. 59 No. 3 'Rasumovsky'; String Quartet No. 14 in c sharp, Op. 131

String Quartet No. 9 in C, Op. 59 No. 3 'Rasumovsky'01. I. Introduzione- Andante con moto - Allegro vivace - 08:0602. II. Andante con moto quasi allegretto - 10:0803. III. Menuetto- Grazioso - Trio 04:5504. IV. Allegro molto - 06:00
Alban Berg QuartettGünter Pichler, Gerhard Schulz, violinHatto Beyerle, violaValentin Erben, cello
String Quartet No. 14 in c sharp, Op. 13105. I. Adagio ma non troppo e molto espressivo - 06:5006. II. Allegro molto vivace - 03:0707. III. Allegro molto moderato - Adagio - Più vivace - 00:5208. IV. Andante ma non troppo e molto cantabile - 13:2409. V. Presto - 05:3610. VI. Adagio quasi un poco andante - 01:3311. VII. Allegro - 06:27
Alban Berg QuartettGünter Pichler, Gerhard Schulz, violinThomas Kakuska, violaValentin Erben, cello

Disk 7 - String Quartet No. 10 in E flat, Op. 74 'Harp'; String Quartet No. 15 in a, Op. 132

String Quartet No. 10 in E flat, Op. 74 'Harp'01. I. Poco adagio - Allegro - 09:2302. II. Adagio ma non troppo - 09:2903. III. Presto - 05:0504. IV. Allegretto con variazioni - 06:30
Alban Berg QuartettGünter Pichler, Gerhard Schulz, violinHatto Beyerle, violaValentin Erben, cello
String Quartet No. 15 in a, Op. 13205. I. Assai sostenuto - Allegro - 09:1706. II. Allegro ma non tanto - 08:2207. III. Molto adagio- Heiliger Dankgesang eines Genesenen an die Gottheit, in der lydischen Tonart - 15:0408. IV. Alla marcia, assai vivace - 02:0309. V. Finale- Allegro appassionato - 06:22
Alban Berg QuartettGünter Pichler, Gerhard Schulz, violinThomas Kakuska, violaValentin Erben, cello
Исполнители:
Alban Berg Quartett
Günter Pichler, Gerhard Schulz, violin
Hatto Beyerle, viola (Opp. 18.1, 18.2, 18.3, 18.4, 18.5, 18.6, 59.1, 59.2, 59.3, 74, 95)
Thomas Kakuska, viola (Opp. 127, 130, 131, 132, 135)
Valentin Erben, cello
Полное собрание квартетов Бетховена в исполнении Квартета им. Альбана Берга; студийная запись 1978-1983 годов. По ходу записи полного цикла бетховенских квартетов в Квартете им. Альбана Берга произошла смена состава - на альте "отца-основателя" Хатто Бейерле заменил Томас Какушка. Какой состав исполняет какие квартеты, запомнить очень просто - если у квартета трехзначный номер опуса, на альте играет Какушка; для удобства пользователя имя Какушки включено в название тех треков, где он играет. Позднее ABQ записали еще один полный цикл квартетов Бетховена в концертном исполнении (уже целиком с Какушкой) на видео; этот цикл доступен в этой раздаче. На Амазоне говорят, что якобы этот второй цикл существует также и на CD, и якобы может возникнуть путаница - поэтому повторим, в данной раздаче представлен первый полный цикл, студийный.
В раздачу включены сканы коробки, обложек, дисков и того, что Warner Music при переиздании решил выдать за буклет - там 8 страничек коротюсенькой статейки на трех языках и выходные данные записи. Если найду сканы издания EMI, переизданием которого является эта коробка, и они будут того стоить, включу в раздачу.

Лог создания рипаDisk 1

Exact Audio Copy V1.0 beta 3 from 29. August 2011
Отчёт EAC об извлечении, выполненном 20. февраля 2015, 12:39
Ludwig van Beethoven / Alban Berg Quartett / Complete String Quartets (Alban Berg Quartett) (Studio) Disk 1 of 7
Дисковод: MATSHITABD-MLT UJ240ES Adapter: 2 ID: 0
Режим чтения : ДостоверностьИспользование точного потока : ДаОтключение кэша аудио : ДаИспользование указателей C2 : Нет
Коррекция смещения при чтении : 103Способность читать области Lead-in и Lead-out : НетЗаполнение пропущенных сэмплов тишиной : ДаУдаление блоков с тишиной в начале и конце : НетПри вычислениях CRC использовались нулевые сэмплы : ДаИнтерфейс : Встроенный Win32-интерфейс для Win NT/2000Обработка зазоров : Добавлено к предыдущему треку
Выходной формат : Пользовательский кодировщикВыбранный битрейт : 1024 kBit/sКачество : ВысокийДобавление ID3-тега : НетУтилита сжатия : C:\Program Files (x86)\Exact Audio Copy\Flac\flac.exeДополнительные параметры : -V -8 -T "Genre=%genre%" -T "Artist=%artist%" -T "Title=%title%" -T "Album=%albumtitle%" -T "Date=%year%" -T "Tracknumber=%tracknr%" -T "Comment=%comment%" %source%
TOC извлечённого CD
Трек | Старт | Длительность | Начальный сектор | Конечный сектор --------------------------------------------------------------------- 1 | 0:00.30 | 8:45.66 | 30 | 39470 2 | 8:46.21 | 9:24.53 | 39471 | 81823 3 | 18:10.74 | 3:20.44 | 81824 | 96867 4 | 21:31.43 | 6:26.08 | 96868 | 125825 5 | 27:57.51 | 9:29.20 | 125826 | 168520 6 | 37:26.71 | 8:45.05 | 168521 | 207900 7 | 46:12.01 | 12:56.00 | 207901 | 266100 8 | 59:08.01 | 8:11.62 | 266101 | 302987
Трек 1
Имя файла C:\Users\Nornore\Documents\EAC rips\BeethovenQuartetsABQStudio\01\01. String Quartet No. 1 in F, Op. 18 No. 1 - I. Allegro con brio.wav
Длина предзазора 0:00:02.30
Пиковый уровень 90.7 % Скорость извлечения 0.8 X Качество трека 99.9 % CRC теста 62C2B9E6 CRC копии 62C2B9E6 Точность не определена (достоверность 13) [949DDFF9], AccurateRip вернул [BCCFD3DC] (AR v2) Копирование... OK
Трек 2
Имя файла C:\Users\Nornore\Documents\EAC rips\BeethovenQuartetsABQStudio\01\02. String Quartet No. 1 in F, Op. 18 No. 1 - II. Adagio affettuoso ed appassionato.wav
Длина предзазора 0:00:01.10
Пиковый уровень 62.3 % Скорость извлечения 0.9 X Качество трека 99.9 % CRC теста 6A0CF29A CRC копии 6A0CF29A Точность не определена (достоверность 13) [917C6266], AccurateRip вернул [C27BA593] (AR v2) Копирование... OK
Трек 3
Имя файла C:\Users\Nornore\Documents\EAC rips\BeethovenQuartetsABQStudio\01\03. String Quartet No. 1 in F, Op. 18 No. 1 - III. Scherzo- Allegro molto - Trio.wav
Длина предзазора 0:00:01.22
Пиковый уровень 73.9 % Скорость извлечения 1.0 X Качество трека 100.0 % CRC теста 8CE8AEDC CRC копии 8CE8AEDC Точность не определена (достоверность 13) [1C28489F], AccurateRip вернул [C1E1A706] (AR v2) Копирование... OK
Трек 4
Имя файла C:\Users\Nornore\Documents\EAC rips\BeethovenQuartetsABQStudio\01\04. String Quartet No. 1 in F, Op. 18 No. 1 - IV. Allegro.wav
Длина предзазора 0:00:01.24
Пиковый уровень 85.1 % Скорость извлечения 1.1 X Качество трека 99.9 % CRC теста 01D2C090 CRC копии 01D2C090 Точность не определена (достоверность 13) [F82840CA], AccurateRip вернул [E0CAB89F] (AR v2) Копирование... OK
Трек 5
Имя файла C:\Users\Nornore\Documents\EAC rips\BeethovenQuartetsABQStudio\01\05. String Quartet No. 7 in F, Op. 59 No. 1 'Rasumovsky' - I. Allegro.wav
Длина предзазора 0:00:05.15
Пиковый уровень 81.8 % Скорость извлечения 1.3 X Качество трека 100.0 % CRC теста ADC660AD CRC копии ADC660AD Точность не определена (достоверность 13) [2EDA5F84], AccurateRip вернул [6099AB7D] (AR v2) Копирование... OK
Трек 6
Имя файла C:\Users\Nornore\Documents\EAC rips\BeethovenQuartetsABQStudio\01\06. String Quartet No. 7 in F, Op. 59 No. 1 'Rasumovsky' - II. Allegretto vivace e sempre scherzando.wav
Длина предзазора 0:00:02.13
Пиковый уровень 76.5 % Скорость извлечения 1.4 X Качество трека 100.0 % CRC теста C08BA489 CRC копии C08BA489 Точность не определена (достоверность 13) [4E995516], AccurateRip вернул [010180E2] (AR v2) Копирование... OK
Трек 7
Имя файла C:\Users\Nornore\Documents\EAC rips\BeethovenQuartetsABQStudio\01\07. String Quartet No. 7 in F, Op. 59 No. 1 'Rasumovsky' - III. Adagio molto e mesto.wav
Длина предзазора 0:00:03.13
Пиковый уровень 59.7 % Скорость извлечения 1.6 X Качество трека 100.0 % CRC теста 6B167F10 CRC копии 6B167F10 Точность не определена (достоверность 13) [62FB0593], AccurateRip вернул [FDB14731] (AR v2) Копирование... OK
Трек 8
Имя файла C:\Users\Nornore\Documents\EAC rips\BeethovenQuartetsABQStudio\01\08. String Quartet No. 7 in F, Op. 59 No. 1 'Rasumovsky' - IV. Allegro (Thème russe).wav
Пиковый уровень 78.5 % Скорость извлечения 1.6 X Качество трека 100.0 % CRC теста 55A22AC2 CRC копии 55A22AC2 Точность не определена (достоверность 13) [B4AE3EAF], AccurateRip вернул [626E23D4] (AR v2) Копирование... OK
Ни один трек не прошёл проверки на точностьВ вашей базе может быть иной вариант штамповки диска
Ошибок не произошло
Конец отчёта
==== Контрольная сумма отчёта E849316B9BF09D308543953F1FDAA00A323381589072FA10862CA631A52E7547 ====

Disk 2

Exact Audio Copy V1.0 beta 3 from 29. August 2011
Отчёт EAC об извлечении, выполненном 20. февраля 2015, 14:57
Ludwig van Beethoven / Alban Berg Quartett / Complete String Quartets (Alban Berg Quartett) (Studio) Disk 2 of 7
Дисковод: MATSHITABD-MLT UJ240ES Adapter: 2 ID: 0
Режим чтения : ДостоверностьИспользование точного потока : ДаОтключение кэша аудио : ДаИспользование указателей C2 : Нет
Коррекция смещения при чтении : 103Способность читать области Lead-in и Lead-out : НетЗаполнение пропущенных сэмплов тишиной : ДаУдаление блоков с тишиной в начале и конце : НетПри вычислениях CRC использовались нулевые сэмплы : ДаИнтерфейс : Встроенный Win32-интерфейс для Win NT/2000Обработка зазоров : Добавлено к предыдущему треку
Выходной формат : Пользовательский кодировщикВыбранный битрейт : 1024 kBit/sКачество : ВысокийДобавление ID3-тега : НетУтилита сжатия : C:\Program Files (x86)\Exact Audio Copy\Flac\flac.exeДополнительные параметры : -V -8 -T "Genre=%genre%" -T "Artist=%artist%" -T "Title=%title%" -T "Album=%albumtitle%" -T "Date=%year%" -T "Tracknumber=%tracknr%" -T "Comment=%comment%" %source%
TOC извлечённого CD
Трек | Старт | Длительность | Начальный сектор | Конечный сектор --------------------------------------------------------------------- 1 | 0:00.30 | 7:59.27 | 30 | 35981 2 | 7:59.57 | 6:30.60 | 35982 | 65291 3 | 14:30.42 | 4:26.09 | 65292 | 85250 4 | 18:56.51 | 5:20.04 | 85251 | 109254 5 | 24:16.55 | 5:46.02 | 109255 | 135206 6 | 30:02.57 | 6:57.45 | 135207 | 166526 7 | 37:00.27 | 3:08.39 | 166527 | 180665 8 | 40:08.66 | 8:34.56 | 180666 | 219271 9 | 48:43.47 | 6:18.56 | 219272 | 247677 10 | 55:02.28 | 3:27.22 | 247678 | 263224 11 | 58:29.50 | 7:49.04 | 263225 | 298403 12 | 66:18.54 | 6:53.15 | 298404 | 329393
Трек 1
Имя файла C:\Users\Nornore\Documents\EAC rips\BeethovenQuartetsABQStudio\02\01. String Quartet No. 2 in G, Op. 18 No. 2 - I. Allegro.wav
Длина предзазора 0:00:02.30
Пиковый уровень 80.6 % Скорость извлечения 0.8 X Качество трека 99.9 % CRC теста 87FE1A8F CRC копии 87FE1A8F Точное извлечение (достоверность 13) [6799FEFE] (AR v2) Копирование... OK
Трек 2
Имя файла C:\Users\Nornore\Documents\EAC rips\BeethovenQuartetsABQStudio\02\02. String Quartet No. 2 in G, Op. 18 No. 2 - II. Adagio cantabile - Allegro - Tempo I.wav
Длина предзазора 0:00:01.10
Пиковый уровень 64.7 % Скорость извлечения 0.9 X Качество трека 99.9 % CRC теста FA18CA87 CRC копии FA18CA87 Точное извлечение (достоверность 13) [81D84F08] (AR v2) Копирование... OK
Трек 3
Имя файла C:\Users\Nornore\Documents\EAC rips\BeethovenQuartetsABQStudio\02\03. String Quartet No. 2 in G, Op. 18 No. 2 - III. Scherzo- Allegro - Trio.wav
Длина предзазора 0:00:01.42
Пиковый уровень 78.4 % Скорость извлечения 1.0 X Качество трека 100.0 % CRC теста 5A2351D8 CRC копии 5A2351D8 Точное извлечение (достоверность 13) [48028FCB] (AR v2) Копирование... OK
Трек 4
Имя файла C:\Users\Nornore\Documents\EAC rips\BeethovenQuartetsABQStudio\02\04. String Quartet No. 2 in G, Op. 18 No. 2 - IV. Allegro molto, quasi presto.wav
Длина предзазора 0:00:01.70
Пиковый уровень 88.4 % Скорость извлечения 1.0 X Качество трека 99.9 % CRC теста B0F8EEA8 CRC копии B0F8EEA8 Точное извлечение (достоверность 13) [9202E382] (AR v2) Копирование... OK
Трек 5
Имя файла C:\Users\Nornore\Documents\EAC rips\BeethovenQuartetsABQStudio\02\05. String Quartet No. 6 in B flat, Op. 18 No. 6 - I. Allegro con brio.wav
Длина предзазора 0:00:04.51
Пиковый уровень 90.9 % Скорость извлечения 1.2 X Качество трека 100.0 % CRC теста DC106E2A CRC копии DC106E2A Точное извлечение (достоверность 13) [F0FCF473] (AR v2) Копирование... OK
Трек 6
Имя файла C:\Users\Nornore\Documents\EAC rips\BeethovenQuartetsABQStudio\02\06. String Quartet No. 6 in B flat, Op. 18 No. 6 - II. Adagio ma non troppo.wav
Длина предзазора 0:00:02.12
Пиковый уровень 80.0 % Скорость извлечения 1.3 X Качество трека 100.0 % CRC теста 3535DDDC CRC копии 3535DDDC Точное извлечение (достоверность 13) [68EB2982] (AR v2) Копирование... OK
Трек 7
Имя файла C:\Users\Nornore\Documents\EAC rips\BeethovenQuartetsABQStudio\02\07. String Quartet No. 6 in B flat, Op. 18 No. 6 - III. Scherzo- Allegro - Trio.wav
Длина предзазора 0:00:00.23
Пиковый уровень 70.5 % Скорость извлечения 1.3 X Качество трека 100.0 % CRC теста 0981DB36 CRC копии 0981DB36 Точное извлечение (достоверность 13) [19CF7067] (AR v2) Копирование... OK
Трек 8
Имя файла C:\Users\Nornore\Documents\EAC rips\BeethovenQuartetsABQStudio\02\08. String Quartet No. 6 in B flat, Op. 18 No. 6 - IV. Adagio (La Malinconia) - Allegretto quasi allegro.wav
Длина предзазора 0:00:00.58
Пиковый уровень 75.9 % Скорость извлечения 1.5 X Качество трека 100.0 % CRC теста B2BB0F98 CRC копии B2BB0F98 Точное извлечение (достоверность 13) [B52512E7] (AR v2) Копирование... OK
Трек 9
Имя файла C:\Users\Nornore\Documents\EAC rips\BeethovenQuartetsABQStudio\02\09. String Quartet No. 16 in F, Op. 135 (Kakuska) - I. Allegretto.wav
Длина предзазора 0:00:05.08
Пиковый уровень 81.6 % Скорость извлечения 1.6 X Качество трека 100.0 % CRC теста 66D5CBEB CRC копии 66D5CBEB Точное извлечение (достоверность 13) [9999A165] (AR v2) Копирование... OK
Трек 10
Имя файла C:\Users\Nornore\Documents\EAC rips\BeethovenQuartetsABQStudio\02\10. String Quartet No. 16 in F, Op. 135 (Kakuska) - II. Vivace.wav
Длина предзазора 0:00:00.45
Пиковый уровень 90.4 % Скорость извлечения 1.5 X Качество трека 100.0 % CRC теста 80193C26 CRC копии 80193C26 Точное извлечение (достоверность 13) [B63985E5] (AR v2) Копирование... OK
Трек 11
Имя файла C:\Users\Nornore\Documents\EAC rips\BeethovenQuartetsABQStudio\02\11. String Quartet No. 16 in F, Op. 135( Kakuska) - III. Lento assai, cantante e tranquillo.wav
Длина предзазора 0:00:03.10
Пиковый уровень 63.9 % Скорость извлечения 1.7 X Качество трека 100.0 % CRC теста 038DFC46 CRC копии 038DFC46 Точное извлечение (достоверность 13) [639107E4] (AR v2) Копирование... OK
Трек 12
Имя файла C:\Users\Nornore\Documents\EAC rips\BeethovenQuartetsABQStudio\02\12. String Quartet No. 16 in F, Op. 135 (Kakuska) - IV. Grave, ma non troppo tratto - Allegro.wav
Длина предзазора 0:00:02.69
Пиковый уровень 88.5 % Скорость извлечения 1.8 X Качество трека 100.0 % CRC теста ADB8A4B2 CRC копии ADB8A4B2 Точное извлечение (достоверность 13) [C330373E] (AR v2) Копирование... OK
Все треки извлечены точно
Ошибок не произошло
Конец отчёта
==== Контрольная сумма отчёта D089FB2F00BDBCD8D60A93BE54485B970DF3FA41CA9FB244FD5D9E0F022302FF ====

Disk 3

Exact Audio Copy V1.0 beta 3 from 29. August 2011
Отчёт EAC об извлечении, выполненном 20. февраля 2015, 17:10
Ludwig van Beethoven / Alban Berg Quartett / Complete String Quartets (Alban Berg Quartett) (Studio) Disk 3 of 7
Дисковод: MATSHITABD-MLT UJ240ES Adapter: 2 ID: 0
Режим чтения : ДостоверностьИспользование точного потока : ДаОтключение кэша аудио : ДаИспользование указателей C2 : Нет
Коррекция смещения при чтении : 103Способность читать области Lead-in и Lead-out : НетЗаполнение пропущенных сэмплов тишиной : ДаУдаление блоков с тишиной в начале и конце : НетПри вычислениях CRC использовались нулевые сэмплы : ДаИнтерфейс : Встроенный Win32-интерфейс для Win NT/2000Обработка зазоров : Добавлено к предыдущему треку
Выходной формат : Пользовательский кодировщикВыбранный битрейт : 1024 kBit/sКачество : ВысокийДобавление ID3-тега : НетУтилита сжатия : C:\Program Files (x86)\Exact Audio Copy\Flac\flac.exeДополнительные параметры : -V -8 -T "Genre=%genre%" -T "Artist=%artist%" -T "Title=%title%" -T "Album=%albumtitle%" -T "Date=%year%" -T "Tracknumber=%tracknr%" -T "Comment=%comment%" %source%
TOC извлечённого CD
Трек | Старт | Длительность | Начальный сектор | Конечный сектор --------------------------------------------------------------------- 1 | 0:00.00 | 7:35.48 | 0 | 34172 2 | 7:35.48 | 7:53.40 | 34173 | 69687 3 | 15:29.13 | 2:59.50 | 69688 | 83162 4 | 18:28.63 | 6:33.34 | 83163 | 112671 5 | 25:02.22 | 6:40.53 | 112672 | 142724 6 | 31:43.00 | 4:23.02 | 142725 | 162451 7 | 36:06.02 | 9:54.21 | 162452 | 207022 8 | 46:00.23 | 6:51.66 | 207023 | 237913 9 | 52:52.14 | 3:54.17 | 237914 | 255480 10 | 56:46.31 | 6:27.05 | 255481 | 284510 11 | 63:13.36 | 4:25.11 | 284511 | 304396 12 | 67:38.47 | 4:49.09 | 304397 | 326080
Трек 1
Имя файла C:\Users\Nornore\Documents\EAC rips\BeethovenQuartetsABQStudio\03\01. String Quartet No. 3 in d, Op. 18 No. 3 - I. Allegro.wav
Длина предзазора 0:00:02.00
Пиковый уровень 79.2 % Скорость извлечения 0.8 X Качество трека 100.0 % CRC теста 42114DAC CRC копии 42114DAC Точное извлечение (достоверность 13) [3C24CDEB] (AR v2) Копирование... OK
Трек 2
Имя файла C:\Users\Nornore\Documents\EAC rips\BeethovenQuartetsABQStudio\03\02. String Quartet No. 3 in d, Op. 18 No. 3 - II. Andante con moto.wav
Длина предзазора 0:00:00.43
Пиковый уровень 98.7 % Скорость извлечения 1.0 X Качество трека 100.0 % CRC теста 5FE6BE2D CRC копии 5FE6BE2D Точное извлечение (достоверность 13) [E87F7D25] (AR v2) Копирование... OK
Трек 3
Имя файла C:\Users\Nornore\Documents\EAC rips\BeethovenQuartetsABQStudio\03\03. String Quartet No. 3 in d, Op. 18 No. 3 - III. Allegro.wav
Длина предзазора 0:00:00.32
Пиковый уровень 52.7 % Скорость извлечения 0.9 X Качество трека 100.0 % CRC теста 3126AC15 CRC копии 3126AC15 Точное извлечение (достоверность 13) [D4C0DA66] (AR v2) Копирование... OK
Трек 4
Имя файла C:\Users\Nornore\Documents\EAC rips\BeethovenQuartetsABQStudio\03\04. String Quartet No. 3 in d, Op. 18 No. 3 - IV. Presto.wav
Длина предзазора 0:00:00.67
Пиковый уровень 79.6 % Скорость извлечения 1.1 X Качество трека 100.0 % CRC теста 71166F4F CRC копии 71166F4F Точное извлечение (достоверность 13) [E407DBBA] (AR v2) Копирование... OK
Трек 5
Имя файла C:\Users\Nornore\Documents\EAC rips\BeethovenQuartetsABQStudio\03\05. String Quartet No. 5 in A, Op. 18 No. 5 - I. Allegro.wav
Длина предзазора 0:00:05.06
Пиковый уровень 86.9 % Скорость извлечения 1.1 X Качество трека 99.9 % CRC теста 7104F35F CRC копии 7104F35F Точное извлечение (достоверность 13) [DD6DC48D] (AR v2) Копирование... OK
Трек 6
Имя файла C:\Users\Nornore\Documents\EAC rips\BeethovenQuartetsABQStudio\03\06. String Quartet No. 5 in A, Op. 18 No. 5 - II. Menuetto - Trio.wav
Длина предзазора 0:00:02.36
Пиковый уровень 67.8 % Скорость извлечения 1.3 X Качество трека 100.0 % CRC теста 1B8F222F CRC копии 1B8F222F Точное извлечение (достоверность 13) [DF577FA8] (AR v2) Копирование... OK
Трек 7
Имя файла C:\Users\Nornore\Documents\EAC rips\BeethovenQuartetsABQStudio\03\07. String Quartet No. 5 in A, Op. 18 No. 5 - III. Andante cantabile.wav
Длина предзазора 0:00:02.20
Пиковый уровень 85.1 % Скорость извлечения 1.4 X Качество трека 99.9 % CRC теста 7657E9F1 CRC копии 7657E9F1 Точное извлечение (достоверность 13) [EE161797] (AR v2) Копирование... OK
Трек 8
Имя файла C:\Users\Nornore\Documents\EAC rips\BeethovenQuartetsABQStudio\03\08. String Quartet No. 5 in A, Op. 18 No. 5 - IV. Allegro.wav
Длина предзазора 0:00:01.57
Пиковый уровень 85.0 % Скорость извлечения 1.5 X Качество трека 100.0 % CRC теста DC64DE4B CRC копии DC64DE4B Точное извлечение (достоверность 13) [69735156] (AR v2) Копирование... OK
Трек 9
Имя файла C:\Users\Nornore\Documents\EAC rips\BeethovenQuartetsABQStudio\03\09. String Quartet No. 11 in f, Op. 95 'Serioso' - I. Allegro con brio.wav
Длина предзазора 0:00:06.07
Пиковый уровень 85.8 % Скорость извлечения 1.5 X Качество трека 100.0 % CRC теста 5391678C CRC копии 5391678C Точное извлечение (достоверность 13) [32380391] (AR v2) Копирование... OK
Трек 10
Имя файла C:\Users\Nornore\Documents\EAC rips\BeethovenQuartetsABQStudio\03\10. String Quartet No. 11 in f, Op. 95 'Serioso' - II. Allegretto ma non troppo.wav
Длина предзазора 0:00:01.28
Пиковый уровень 61.6 % Скорость извлечения 1.5 X Качество трека 99.9 % CRC теста 7CF1B976 CRC копии 7CF1B976 Точное извлечение (достоверность 13) [D83C5CEE] (AR v2) Копирование... OK
Трек 11
Имя файла C:\Users\Nornore\Documents\EAC rips\BeethovenQuartetsABQStudio\03\11. String Quartet No. 11 in f, Op. 95 'Serioso' - III. Allegro assai vivace, ma serioso.wav
Пиковый уровень 74.0 % Скорость извлечения 1.6 X Качество трека 100.0 % CRC теста 66B10AB0 CRC копии 66B10AB0 Точное извлечение (достоверность 13) [624B5F1A] (AR v2) Копирование... OK
Трек 12
Имя файла C:\Users\Nornore\Documents\EAC rips\BeethovenQuartetsABQStudio\03\12. String Quartet No. 11 in f, Op. 95 'Serioso' - IV. Larghetto espressivo - Allegretto agitato - Allegro.wav
Длина предзазора 0:00:01.48
Пиковый уровень 73.8 % Скорость извлечения 1.7 X Качество трека 100.0 % CRC теста 3F88838A CRC копии 3F88838A Точное извлечение (достоверность 13) [9C55208D] (AR v2) Копирование... OK
Все треки извлечены точно
Ошибок не произошло
Конец отчёта
==== Контрольная сумма отчёта 7A8F346D118EBDD1E6164474B5EE4CB65962536D7D5D4BF6F291859353E47728 ====

Disk 4

Exact Audio Copy V1.0 beta 3 from 29. August 2011
Отчёт EAC об извлечении, выполненном 20. февраля 2015, 19:33
Ludwig van Beethoven / Alban Berg Quartett / Complete String Quartets (Alban Berg Quartett) (Studio) Disk 4 of 7
Дисковод: MATSHITABD-MLT UJ240ES Adapter: 2 ID: 0
Режим чтения : ДостоверностьИспользование точного потока : ДаОтключение кэша аудио : ДаИспользование указателей C2 : Нет
Коррекция смещения при чтении : 103Способность читать области Lead-in и Lead-out : НетЗаполнение пропущенных сэмплов тишиной : ДаУдаление блоков с тишиной в начале и конце : НетПри вычислениях CRC использовались нулевые сэмплы : ДаИнтерфейс : Встроенный Win32-интерфейс для Win NT/2000Обработка зазоров : Добавлено к предыдущему треку
Выходной формат : Пользовательский кодировщикВыбранный битрейт : 1024 kBit/sКачество : ВысокийДобавление ID3-тега : НетУтилита сжатия : C:\Program Files (x86)\Exact Audio Copy\Flac\flac.exeДополнительные параметры : -V -8 -T "Genre=%genre%" -T "Artist=%artist%" -T "Title=%title%" -T "Album=%albumtitle%" -T "Date=%year%" -T "Tracknumber=%tracknr%" -T "Comment=%comment%" %source%
TOC извлечённого CD
Трек | Старт | Длительность | Начальный сектор | Конечный сектор --------------------------------------------------------------------- 1 | 0:00.00 | 8:27.30 | 0 | 38054 2 | 8:27.30 | 6:58.69 | 38055 | 69473 3 | 15:26.24 | 3:22.56 | 69474 | 84679 4 | 18:49.05 | 4:30.39 | 84680 | 104968 5 | 23:19.44 | 9:51.37 | 104969 | 149330 6 | 33:11.06 | 1:59.42 | 149331 | 158297 7 | 35:10.48 | 6:54.32 | 158298 | 189379 8 | 42:05.05 | 2:58.59 | 189380 | 202788 9 | 45:03.64 | 7:09.20 | 202789 | 234983 10 | 52:13.09 | 15:36.73 | 234984 | 305256 11 | 67:50.07 | 7:50.15 | 305257 | 340521
Трек 1
Имя файла C:\Users\Nornore\Documents\EAC rips\BeethovenQuartetsABQStudio\04\01. String Quartet No. 4 in c, Op. 18 No. 4 - I. Allegro ma non tanto.wav
Длина предзазора 0:00:02.00
Пиковый уровень 70.9 % Скорость извлечения 0.9 X Качество трека 100.0 % CRC теста 25FDD7E3 CRC копии 25FDD7E3 Точное извлечение (достоверность 13) [71C445F6] (AR v2) Копирование... OK
Трек 2
Имя файла C:\Users\Nornore\Documents\EAC rips\BeethovenQuartetsABQStudio\04\02. String Quartet No. 4 in c, Op. 18 No. 4 - II. Scherzo- Andante scherzoso quasi allegretto.wav
Длина предзазора 0:00:02.18
Пиковый уровень 59.5 % Скорость извлечения 1.0 X Качество трека 100.0 % CRC теста 62C439E3 CRC копии 62C439E3 Точное извлечение (достоверность 13) [11E66A2B] (AR v2) Копирование... OK
Трек 3
Имя файла C:\Users\Nornore\Documents\EAC rips\BeethovenQuartetsABQStudio\04\03. String Quartet No. 4 in c, Op. 18 No. 4 - III. Menuetto- Allegretto - Trio.wav
Длина предзазора 0:00:01.37
Пиковый уровень 59.2 % Скорость извлечения 1.0 X Качество трека 100.0 % CRC теста 71DDFFB5 CRC копии 71DDFFB5 Точное извлечение (достоверность 13) [ED0DFE3E] (AR v2) Копирование... OK
Трек 4
Имя файла C:\Users\Nornore\Documents\EAC rips\BeethovenQuartetsABQStudio\04\04. String Quartet No. 4 in c, Op. 18 No. 4 - IV. Allegro.wav
Пиковый уровень 67.6 % Скорость извлечения 1.1 X Качество трека 100.0 % CRC теста 0113B5DE CRC копии 0113B5DE Точное извлечение (достоверность 13) [7617B2E8] (AR v2) Копирование... OK
Трек 5
Имя файла C:\Users\Nornore\Documents\EAC rips\BeethovenQuartetsABQStudio\04\05. String Quartet No. 13 in B flat, Op. 130 (Kakuska) - I. Adagio ma non troppo - Allegro.wav
Длина предзазора 0:00:05.02
Пиковый уровень 92.1 % Скорость извлечения 1.3 X Качество трека 100.0 % CRC теста 5E2E276A CRC копии 5E2E276A Точное извлечение (достоверность 13) [C4C5A8D6] (AR v2) Копирование... OK
Трек 6
Имя файла C:\Users\Nornore\Documents\EAC rips\BeethovenQuartetsABQStudio\04\06. String Quartet No. 13 in B flat, Op. 130 (Kakuska) - II. Presto.wav
Длина предзазора 0:00:01.70
Пиковый уровень 57.3 % Скорость извлечения 1.1 X Качество трека 100.0 % CRC теста 3ACE7FE2 CRC копии 3ACE7FE2 Точное извлечение (достоверность 13) [BA1751B3] (AR v2) Копирование... OK
Трек 7
Имя файла C:\Users\Nornore\Documents\EAC rips\BeethovenQuartetsABQStudio\04\07. String Quartet No. 13 in B flat, Op. 130 (Kakuska) - III. Andante con moto, ma non troppo.wav
Длина предзазора 0:00:01.50
Пиковый уровень 61.3 % Скорость извлечения 1.4 X Качество трека 100.0 % CRC теста 9EFF2756 CRC копии 9EFF2756 Точное извлечение (достоверность 13) [144A48AD] (AR v2) Копирование... OK
Трек 8
Имя файла C:\Users\Nornore\Documents\EAC rips\BeethovenQuartetsABQStudio\04\08. String Quartet No. 13 in B flat, Op. 130 (Kakuska) - IV. Alla danza tedesca- Allegro assai.wav
Длина предзазора 0:00:00.42
Пиковый уровень 55.1 % Скорость извлечения 1.3 X Качество трека 100.0 % CRC теста D16E3592 CRC копии D16E3592 Точное извлечение (достоверность 13) [0AC4832A] (AR v2) Копирование... OK
Трек 9
Имя файла C:\Users\Nornore\Documents\EAC rips\BeethovenQuartetsABQStudio\04\09. String Quartet No. 13 in B flat, Op. 130 (Kakuska) - V. Cavatina- Adagio molto espressivo.wav
Длина предзазора 0:00:01.27
Пиковый уровень 44.7 % Скорость извлечения 1.4 X Качество трека 99.9 % CRC теста 5F0E27CC CRC копии 5F0E27CC Точное извлечение (достоверность 13) [2D35C3F5] (AR v2) Копирование... OK
Трек 10
Имя файла C:\Users\Nornore\Documents\EAC rips\BeethovenQuartetsABQStudio\04\10. Große Fuge in B flat, Op. 133 (Kakuska).wav
Длина предзазора 0:00:01.68
Пиковый уровень 98.8 % Скорость извлечения 1.7 X Качество трека 100.0 % CRC теста 8F0C552E CRC копии 8F0C552E Точное извлечение (достоверность 13) [DDB25199] (AR v2) Копирование... OK
Трек 11
Имя файла C:\Users\Nornore\Documents\EAC rips\BeethovenQuartetsABQStudio\04\11. String Quartet No. 13 in B flat, Op. 130 (Kakuska) - VI. Finale- Allegro.wav
Длина предзазора 0:00:03.22
Пиковый уровень 87.6 % Скорость извлечения 1.8 X Качество трека 100.0 % CRC теста 6D75D57F CRC копии 6D75D57F Точное извлечение (достоверность 12) [17FCCC4E] (AR v2) Копирование... OK
Все треки извлечены точно
Ошибок не произошло
Конец отчёта
==== Контрольная сумма отчёта 29ADE01A940AA6ED5B8D23C46684B1BFF27B10C365DECE7E6846BB2E659075DC ====

Disk 5

Exact Audio Copy V1.0 beta 3 from 29. August 2011
Отчёт EAC об извлечении, выполненном 20. февраля 2015, 22:13
Ludwig van Beethoven / Alban Berg Quartett / Complete String Quartets (Alban Berg Quartett) (Studio) Disk 5 of 7
Дисковод: MATSHITABD-MLT UJ240ES Adapter: 2 ID: 0
Режим чтения : ДостоверностьИспользование точного потока : ДаОтключение кэша аудио : ДаИспользование указателей C2 : Нет
Коррекция смещения при чтении : 103Способность читать области Lead-in и Lead-out : НетЗаполнение пропущенных сэмплов тишиной : ДаУдаление блоков с тишиной в начале и конце : НетПри вычислениях CRC использовались нулевые сэмплы : ДаИнтерфейс : Встроенный Win32-интерфейс для Win NT/2000Обработка зазоров : Добавлено к предыдущему треку
Выходной формат : Пользовательский кодировщикВыбранный битрейт : 1024 kBit/sКачество : ВысокийДобавление ID3-тега : НетУтилита сжатия : C:\Program Files (x86)\Exact Audio Copy\Flac\flac.exeДополнительные параметры : -V -8 -T "Genre=%genre%" -T "Artist=%artist%" -T "Title=%title%" -T "Album=%albumtitle%" -T "Date=%year%" -T "Tracknumber=%tracknr%" -T "Comment=%comment%" %source%
TOC извлечённого CD
Трек | Старт | Длительность | Начальный сектор | Конечный сектор --------------------------------------------------------------------- 1 | 0:00.00 | 8:59.34 | 0 | 40458 2 | 8:59.34 | 12:23.17 | 40459 | 96200 3 | 21:22.51 | 6:28.04 | 96201 | 125304 4 | 27:50.55 | 5:14.68 | 125305 | 148922 5 | 33:05.48 | 6:40.54 | 148923 | 178976 6 | 39:46.27 | 16:38.39 | 178977 | 253865 7 | 56:24.66 | 6:51.32 | 253866 | 284722 8 | 63:16.23 | 6:49.53 | 284723 | 315450
Трек 1
Имя файла C:\Users\Nornore\Documents\EAC rips\BeethovenQuartetsABQStudio\05\01. String Quartet No. 8 in e, Op. 59 No. 2 'Rasumovsky' - I. Allegro.wav
Длина предзазора 0:00:02.00
Пиковый уровень 65.0 % Скорость извлечения 0.8 X Качество трека 99.9 % CRC теста 6FDC6C2A CRC копии 6FDC6C2A Точное извлечение (достоверность 4) [D8EB0E7A] (AR v2) Копирование... OK
Трек 2
Имя файла C:\Users\Nornore\Documents\EAC rips\BeethovenQuartetsABQStudio\05\02. String Quartet No. 8 in e, Op. 59 No. 2 'Rasumovsky' - II. Molto adagio.wav
Длина предзазора 0:00:02.36
Пиковый уровень 44.2 % Скорость извлечения 1.0 X Качество трека 100.0 % CRC теста 9B09DA1F CRC копии 9B09DA1F Точное извлечение (достоверность 4) [3EB93B7D] (AR v2) Копирование... OK
Трек 3
Имя файла C:\Users\Nornore\Documents\EAC rips\BeethovenQuartetsABQStudio\05\03. String Quartet No. 8 in e, Op. 59 No. 2 'Rasumovsky' - III. Allegretto.wav
Длина предзазора 0:00:01.65
Пиковый уровень 62.7 % Скорость извлечения 1.2 X Качество трека 100.0 % CRC теста DB340E0F CRC копии DB340E0F Точное извлечение (достоверность 4) [84174324] (AR v2) Копирование... OK
Трек 4
Имя файла C:\Users\Nornore\Documents\EAC rips\BeethovenQuartetsABQStudio\05\04. String Quartet No. 8 in e, Op. 59 No. 2 'Rasumovsky' - IV. Finale- Presto.wav
Длина предзазора 0:00:01.53
Пиковый уровень 61.1 % Скорость извлечения 1.2 X Качество трека 100.0 % CRC теста 069DBC53 CRC копии 069DBC53 Точное извлечение (достоверность 4) [AA21ECA6] (AR v2) Копирование... OK
Трек 5
Имя файла C:\Users\Nornore\Documents\EAC rips\BeethovenQuartetsABQStudio\05\05. String Quartet No. 12 in E flat, Op. 127 (Kakuska) - I. Maestoso - Allegro.wav
Длина предзазора 0:00:05.21
Пиковый уровень 88.1 % Скорость извлечения 1.2 X Качество трека 99.9 % CRC теста 9BEC1FE4 CRC копии 9BEC1FE4 Точное извлечение (достоверность 4) [E586F724] (AR v2) Копирование... OK
Трек 6
Имя файла C:\Users\Nornore\Documents\EAC rips\BeethovenQuartetsABQStudio\05\06. String Quartet No. 12 in E flat, Op. 127 (Kakuska) - II. Adagio ma non troppo e molto cantabile.wav
Длина предзазора 0:00:01.36
Пиковый уровень 49.7 % Скорость извлечения 1.5 X Качество трека 100.0 % CRC теста 9D14A80B CRC копии 9D14A80B Точное извлечение (достоверность 4) [3C189F2E] (AR v2) Копирование... OK
Трек 7
Имя файла C:\Users\Nornore\Documents\EAC rips\BeethovenQuartetsABQStudio\05\07. String Quartet No. 12 in E flat, Op. 127 (Kakuska) - III. Scherzando vivace.wav
Длина предзазора 0:00:00.28
Пиковый уровень 75.1 % Скорость извлечения 1.6 X Качество трека 100.0 % CRC теста 136772BC CRC копии 136772BC Точное извлечение (достоверность 4) [70130CCB] (AR v2) Копирование... OK
Трек 8
Имя файла C:\Users\Nornore\Documents\EAC rips\BeethovenQuartetsABQStudio\05\08. String Quartet No. 12 in E flat, Op. 127 (Kakuska) - IV. Finale.wav
Длина предзазора 0:00:02.09
Пиковый уровень 87.6 % Скорость извлечения 1.5 X Качество трека 99.9 % CRC теста 1A89A676 CRC копии 1A89A676 Точное извлечение (достоверность 4) [A8782C38] (AR v2) Копирование... OK
Все треки извлечены точно
Ошибок не произошло
Конец отчёта
==== Контрольная сумма отчёта 833F06579F1A630CF8E5E234E5334E89A7BEF252602AC7AAA80A866FA9F38995 ====

Disk 6

Exact Audio Copy V1.0 beta 3 from 29. August 2011
Отчёт EAC об извлечении, выполненном 21. февраля 2015, 10:28
Ludwig van Beethoven / Alban Berg Quartett / Complete String Quartets (Alban Berg Quartett) (Studio) Disk 6 of 7
Дисковод: MATSHITABD-MLT UJ240ES Adapter: 2 ID: 0
Режим чтения : ДостоверностьИспользование точного потока : ДаОтключение кэша аудио : ДаИспользование указателей C2 : Нет
Коррекция смещения при чтении : 103Способность читать области Lead-in и Lead-out : НетЗаполнение пропущенных сэмплов тишиной : ДаУдаление блоков с тишиной в начале и конце : НетПри вычислениях CRC использовались нулевые сэмплы : ДаИнтерфейс : Встроенный Win32-интерфейс для Win NT/2000Обработка зазоров : Добавлено к предыдущему треку
Выходной формат : Пользовательский кодировщикВыбранный битрейт : 1024 kBit/sКачество : ВысокийДобавление ID3-тега : НетУтилита сжатия : C:\Program Files (x86)\Exact Audio Copy\Flac\flac.exeДополнительные параметры : -V -8 -T "Genre=%genre%" -T "Artist=%artist%" -T "Title=%title%" -T "Album=%albumtitle%" -T "Date=%year%" -T "Tracknumber=%tracknr%" -T "Comment=%comment%" %source%
TOC извлечённого CD
Трек | Старт | Длительность | Начальный сектор | Конечный сектор --------------------------------------------------------------------- 1 | 0:00.00 | 8:08.13 | 0 | 36612 2 | 8:08.13 | 10:09.39 | 36613 | 82326 3 | 18:17.52 | 4:55.60 | 82327 | 104511 4 | 23:13.37 | 6:03.26 | 104512 | 131762 5 | 29:16.63 | 6:50.45 | 131763 | 162557 6 | 36:07.33 | 3:07.53 | 162558 | 176635 7 | 39:15.11 | 0:51.73 | 176636 | 180533 8 | 40:07.09 | 13:23.66 | 180534 | 240824 9 | 53:31.00 | 5:36.26 | 240825 | 266050 10 | 59:07.26 | 1:33.35 | 266051 | 273060 11 | 60:40.61 | 6:27.56 | 273061 | 302141
Трек 1
Имя файла C:\Users\Nornore\Documents\EAC rips\BeethovenQuartetsABQStudio\06\01. String Quartet No. 9 in C, Op. 59 No. 3 'Rasumovsky' - I. Introduzione- Andante con moto - Allegro vivace.wav
Длина предзазора 0:00:02.00
Пиковый уровень 80.6 % Скорость извлечения 0.8 X Качество трека 100.0 % CRC теста 388E1EF6 CRC копии 388E1EF6 Точное извлечение (достоверность 13) [57508B17] (AR v2) Копирование... OK
Трек 2
Имя файла C:\Users\Nornore\Documents\EAC rips\BeethovenQuartetsABQStudio\06\02. String Quartet No. 9 in C, Op. 59 No. 3 'Rasumovsky' - II. Andante con moto quasi allegretto.wav
Длина предзазора 0:00:01.41
Пиковый уровень 59.9 % Скорость извлечения 0.9 X Качество трека 99.9 % CRC теста 6A074E7C CRC копии 6A074E7C Точное извлечение (достоверность 13) [57467608] (AR v2) Копирование... OK
Трек 3
Имя файла C:\Users\Nornore\Documents\EAC rips\BeethovenQuartetsABQStudio\06\03. String Quartet No. 9 in C, Op. 59 No. 3 'Rasumovsky' - III. Menuetto- Grazioso - Trio.wav
Длина предзазора 0:00:01.28
Пиковый уровень 67.9 % Скорость извлечения 0.9 X Качество трека 99.9 % CRC теста 62723E03 CRC копии 62723E03 Точное извлечение (достоверность 13) [87364902] (AR v2) Копирование... OK
Трек 4
Имя файла C:\Users\Nornore\Documents\EAC rips\BeethovenQuartetsABQStudio\06\04. String Quartet No. 9 in C, Op. 59 No. 3 'Rasumovsky' - IV. Allegro molto.wav
Пиковый уровень 84.2 % Скорость извлечения 1.2 X Качество трека 100.0 % CRC теста E9B009FE CRC копии E9B009FE Точное извлечение (достоверность 13) [A6061F78] (AR v2) Копирование... OK
Трек 5
Имя файла C:\Users\Nornore\Documents\EAC rips\BeethovenQuartetsABQStudio\06\05. String Quartet No. 14 in c sharp, Op. 131 (Kakuska) - I. Adagio ma non troppo e molto espressivo.wav
Длина предзазора 0:00:03.45
Пиковый уровень 59.0 % Скорость извлечения 1.3 X Качество трека 100.0 % CRC теста 02EE17E0 CRC копии 02EE17E0 Точное извлечение (достоверность 14) [875E5B6D] (AR v2) Копирование... OK
Трек 6
Имя файла C:\Users\Nornore\Documents\EAC rips\BeethovenQuartetsABQStudio\06\06. String Quartet No. 14 in c sharp, Op. 131 (Kakuska) - II. Allegro molto vivace.wav
Пиковый уровень 95.5 % Скорость извлечения 1.2 X Качество трека 100.0 % CRC теста 16CEA6AB CRC копии 16CEA6AB Точное извлечение (достоверность 14) [D36C0129] (AR v2) Копирование... OK
Трек 7
Имя файла C:\Users\Nornore\Documents\EAC rips\BeethovenQuartetsABQStudio\06\07. String Quartet No. 14 in c sharp, Op. 131 (Kakuska) - III. Allegro molto moderato - Adagio - Più vivace.wav
Пиковый уровень 56.9 % Скорость извлечения 0.8 X Качество трека 100.0 % CRC теста BE35DCE3 CRC копии BE35DCE3 Точное извлечение (достоверность 14) [4F3FBF57] (AR v2) Копирование... OK
Трек 8
Имя файла C:\Users\Nornore\Documents\EAC rips\BeethovenQuartetsABQStudio\06\08. String Quartet No. 14 in c sharp, Op. 131 (Kakuska) - IV. Andante ma non troppo e molto cantabile.wav
Пиковый уровень 64.5 % Скорость извлечения 1.5 X Качество трека 100.0 % CRC теста DF736EB0 CRC копии DF736EB0 Точное извлечение (достоверность 14) [7A00C2EC] (AR v2) Копирование... OK
Трек 9
Имя файла C:\Users\Nornore\Documents\EAC rips\BeethovenQuartetsABQStudio\06\09. String Quartet No. 14 in c sharp, Op. 131 (Kakuska) - V. Presto.wav
Пиковый уровень 95.5 % Скорость извлечения 1.5 X Качество трека 100.0 % CRC теста 425A53D8 CRC копии 425A53D8 Точное извлечение (достоверность 14) [1CEEF5A7] (AR v2) Копирование... OK
Трек 10
Имя файла C:\Users\Nornore\Documents\EAC rips\BeethovenQuartetsABQStudio\06\10. String Quartet No. 14 in c sharp, Op. 131 (Kakuska) - VI. Adagio quasi un poco andante.wav
Пиковый уровень 28.4 % Скорость извлечения 1.2 X Качество трека 100.0 % CRC теста 0D8A640E CRC копии 0D8A640E Точное извлечение (достоверность 14) [3E6ACD3D] (AR v2) Копирование... OK
Трек 11
Имя файла C:\Users\Nornore\Documents\EAC rips\BeethovenQuartetsABQStudio\06\11. String Quartet No. 14 in c sharp, Op. 131 (Kakuska) - VII. Allegro.wav
Пиковый уровень 95.5 % Скорость извлечения 1.5 X Качество трека 99.9 % CRC теста D3F2BDA6 CRC копии D3F2BDA6 Точное извлечение (достоверность 14) [20675C6E] (AR v2) Копирование... OK
Все треки извлечены точно
Ошибок не произошло
Конец отчёта
==== Контрольная сумма отчёта 7DA389E7C07BE9FAFDE3BB776EB4242FD3849CAF14A25CF033AF58FD46B6307F ====

Disk 7

Exact Audio Copy V1.0 beta 3 from 29. August 2011
Отчёт EAC об извлечении, выполненном 21. февраля 2015, 12:40
Ludwig van Beethoven / Alban Berg Quartett / Complete String Quartets (Alban Berg Quartett) (Studio) Disk 7 of 7
Дисковод: MATSHITABD-MLT UJ240ES Adapter: 2 ID: 0
Режим чтения : ДостоверностьИспользование точного потока : ДаОтключение кэша аудио : ДаИспользование указателей C2 : Нет
Коррекция смещения при чтении : 103Способность читать области Lead-in и Lead-out : НетЗаполнение пропущенных сэмплов тишиной : ДаУдаление блоков с тишиной в начале и конце : НетПри вычислениях CRC использовались нулевые сэмплы : ДаИнтерфейс : Встроенный Win32-интерфейс для Win NT/2000Обработка зазоров : Добавлено к предыдущему треку
Выходной формат : Пользовательский кодировщикВыбранный битрейт : 1024 kBit/sКачество : ВысокийДобавление ID3-тега : НетУтилита сжатия : C:\Program Files (x86)\Exact Audio Copy\Flac\flac.exeДополнительные параметры : -V -8 -T "Genre=%genre%" -T "Artist=%artist%" -T "Title=%title%" -T "Album=%albumtitle%" -T "Date=%year%" -T "Tracknumber=%tracknr%" -T "Comment=%comment%" %source%
TOC извлечённого CD
Трек | Старт | Длительность | Начальный сектор | Конечный сектор --------------------------------------------------------------------- 1 | 0:00.00 | 9:24.38 | 0 | 42337 2 | 9:24.38 | 9:30.34 | 42338 | 85121 3 | 18:54.72 | 5:05.49 | 85122 | 108045 4 | 24:00.46 | 6:34.35 | 108046 | 137630 5 | 30:35.06 | 9:17.50 | 137631 | 179455 6 | 39:52.56 | 8:23.59 | 179456 | 217239 7 | 48:16.40 | 15:06.10 | 217240 | 285199 8 | 63:22.50 | 2:03.05 | 285200 | 294429 9 | 65:25.55 | 6:22.26 | 294430 | 323105
Трек 1
Имя файла C:\Users\Nornore\Documents\EAC rips\BeethovenQuartetsABQStudio\07\01. String Quartet No. 10 in E flat, Op. 74 'Harp' - I. Poco adagio - Allegro.wav
Длина предзазора 0:00:02.00
Пиковый уровень 81.9 % Скорость извлечения 0.9 X Качество трека 100.0 % CRC теста 66FC7A42 CRC копии 66FC7A42 Точное извлечение (достоверность 13) [33EF7800] (AR v2) Копирование... OK
Трек 2
Имя файла C:\Users\Nornore\Documents\EAC rips\BeethovenQuartetsABQStudio\07\02. String Quartet No. 10 in E flat, Op. 74 'Harp' - II. Adagio ma non troppo.wav
Длина предзазора 0:00:01.28
Пиковый уровень 57.9 % Скорость извлечения 1.1 X Качество трека 100.0 % CRC теста B24DB74F CRC копии B24DB74F Точное извлечение (достоверность 13) [035FB314] (AR v2) Копирование... OK
Трек 3
Имя файла C:\Users\Nornore\Documents\EAC rips\BeethovenQuartetsABQStudio\07\03. String Quartet No. 10 in E flat, Op. 74 'Harp' - III. Presto.wav
Длина предзазора 0:00:01.13
Пиковый уровень 78.3 % Скорость извлечения 1.1 X Качество трека 100.0 % CRC теста 5085C4B6 CRC копии 5085C4B6 Точное извлечение (достоверность 13) [E36260F0] (AR v2) Копирование... OK
Трек 4
Имя файла C:\Users\Nornore\Documents\EAC rips\BeethovenQuartetsABQStudio\07\04. String Quartet No. 10 in E flat, Op. 74 'Harp' - IV. Allegretto con variazioni.wav
Пиковый уровень 70.1 % Скорость извлечения 1.2 X Качество трека 100.0 % CRC теста 0705B0F4 CRC копии 0705B0F4 Точное извлечение (достоверность 13) [E253BE29] (AR v2) Копирование... OK
Трек 5
Имя файла C:\Users\Nornore\Documents\EAC rips\BeethovenQuartetsABQStudio\07\05. String Quartet No. 15 in a, Op. 132 (Kakuska) - I. Assai sostenuto - Allegro.wav
Длина предзазора 0:00:04.04
Пиковый уровень 93.9 % Скорость извлечения 1.4 X Качество трека 100.0 % CRC теста E473AB7C CRC копии E473AB7C Точное извлечение (достоверность 14) [C4CFF878] (AR v2) Копирование... OK
Трек 6
Имя файла C:\Users\Nornore\Documents\EAC rips\BeethovenQuartetsABQStudio\07\06. String Quartet No. 15 in a, Op. 132 (Kakuska) - II. Allegro ma non tanto.wav
Длина предзазора 0:00:00.73
Пиковый уровень 85.6 % Скорость извлечения 1.4 X Качество трека 100.0 % CRC теста C0C23627 CRC копии C0C23627 Точное извлечение (достоверность 14) [A503D69D] (AR v2) Копирование... OK
Трек 7
Имя файла C:\Users\Nornore\Documents\EAC rips\BeethovenQuartetsABQStudio\07\07. String Quartet No. 15 in a, Op. 132 (Kakuska) - III. Molto adagio- Heiliger Dankgesang eines Genesenen an die Gottheit, in der lydischen Tonart.wav
Длина предзазора 0:00:01.31
Пиковый уровень 62.0 % Скорость извлечения 1.6 X Качество трека 100.0 % CRC теста 701A48C8 CRC копии 701A48C8 Точное извлечение (достоверность 14) [235DE27A] (AR v2) Копирование... OK
Трек 8
Имя файла C:\Users\Nornore\Documents\EAC rips\BeethovenQuartetsABQStudio\07\08. String Quartet No. 15 in a, Op. 132 (Kakuska) - IV. Alla marcia, assai vivace -.wav
Длина предзазора 0:00:02.04
Пиковый уровень 67.5 % Скорость извлечения 1.4 X Качество трека 100.0 % CRC теста 3B1D42BC CRC копии 3B1D42BC Точное извлечение (достоверность 14) [376143EE] (AR v2) Копирование... OK
Трек 9
Имя файла C:\Users\Nornore\Documents\EAC rips\BeethovenQuartetsABQStudio\07\09. String Quartet No. 15 in a, Op. 132 (Kakuska) - V. Finale- Allegro appassionato.wav
Пиковый уровень 99.5 % Скорость извлечения 1.6 X Качество трека 100.0 % CRC теста ACFEC400 CRC копии ACFEC400 Точное извлечение (достоверность 14) [F940CCF8] (AR v2) Копирование... OK
Все треки извлечены точно
Ошибок не произошло
Конец отчёта
==== Контрольная сумма отчёта E173F63162484D2882D598FA80A8AC55F7F5C05DE8C713DFC3A9665FF28DD19A ====

Содержание индексной карты (.CUE)Disk 1

REM GENRE ClassicalREM DATE 2012REM DISCID 740FC708REM COMMENT "ExactAudioCopy v1.0b3"CATALOG 5099970441420PERFORMER "Ludwig van Beethoven / Alban Berg Quartett"TITLE "Complete String Quartets (Alban Berg Quartett) (Studio) Disk 1 of 7"FILE "01. String Quartet No. 1 in F, Op. 18 No. 1 - I. Allegro con brio.wav" WAVE TRACK 01 AUDIO TITLE "String Quartet No. 1 in F, Op. 18 No. 1 - I. Allegro con brio" PERFORMER "Ludwig van Beethoven / Alban Berg Quartett" ISRC GBAYC8500516 PREGAP 00:00:30 INDEX 01 00:00:00 TRACK 02 AUDIO TITLE "String Quartet No. 1 in F, Op. 18 No. 1 - II. Adagio affettuoso ed appassionato" PERFORMER "Ludwig van Beethoven / Alban Berg Quartett" ISRC GBAYC8500517 INDEX 00 08:44:56FILE "02. String Quartet No. 1 in F, Op. 18 No. 1 - II. Adagio affettuoso ed appassionato.wav" WAVE INDEX 01 00:00:00 TRACK 03 AUDIO TITLE "String Quartet No. 1 in F, Op. 18 No. 1 - III. Scherzo: Allegro molto - Trio" PERFORMER "Ludwig van Beethoven / Alban Berg Quartett" ISRC GBAYC8500518 INDEX 00 09:23:31FILE "03. String Quartet No. 1 in F, Op. 18 No. 1 - III. Scherzo- Allegro molto - Trio.wav" WAVE INDEX 01 00:00:00 TRACK 04 AUDIO TITLE "String Quartet No. 1 in F, Op. 18 No. 1 - IV. Allegro" PERFORMER "Ludwig van Beethoven / Alban Berg Quartett" ISRC GBAYC8500519 INDEX 00 03:19:20FILE "04. String Quartet No. 1 in F, Op. 18 No. 1 - IV. Allegro.wav" WAVE INDEX 01 00:00:00 TRACK 05 AUDIO TITLE "String Quartet No. 7 in F, Op. 59 No. 1 'Rasumovsky' - I. Allegro" PERFORMER "Ludwig van Beethoven / Alban Berg Quartett" ISRC GBAYC1201016 INDEX 00 06:20:68FILE "05. String Quartet No. 7 in F, Op. 59 No. 1 'Rasumovsky' - I. Allegro.wav" WAVE INDEX 01 00:00:00 TRACK 06 AUDIO TITLE "String Quartet No. 7 in F, Op. 59 No. 1 'Rasumovsky' - II. Allegretto vivace e sempre scherzando" PERFORMER "Ludwig van Beethoven / Alban Berg Quartett" ISRC GBAYC1201017 INDEX 00 09:27:07FILE "06. String Quartet No. 7 in F, Op. 59 No. 1 'Rasumovsky' - II. Allegretto vivace e sempre scherzando.wav" WAVE INDEX 01 00:00:00 TRACK 07 AUDIO TITLE "String Quartet No. 7 in F, Op. 59 No. 1 'Rasumovsky' - III. Adagio molto e mesto" PERFORMER "Ludwig van Beethoven / Alban Berg Quartett" ISRC GBAYC1201018 INDEX 00 08:41:67FILE "07. String Quartet No. 7 in F, Op. 59 No. 1 'Rasumovsky' - III. Adagio molto e mesto.wav" WAVE INDEX 01 00:00:00FILE "08. String Quartet No. 7 in F, Op. 59 No. 1 'Rasumovsky' - IV. Allegro (Thème russe).wav" WAVE TRACK 08 AUDIO TITLE "String Quartet No. 7 in F, Op. 59 No. 1 'Rasumovsky' - IV. Allegro (Thème russe)" PERFORMER "Ludwig van Beethoven / Alban Berg Quartett" ISRC GBAYC1201019 INDEX 01 00:00:00

Disk 2

REM GENRE ClassicalREM DATE 2012REM DISCID 9511270CREM COMMENT "ExactAudioCopy v1.0b3"CATALOG 5099970441529PERFORMER "Ludwig van Beethoven / Alban Berg Quartett"TITLE "Complete String Quartets (Alban Berg Quartett) (Studio) Disk 2 of 7"FILE "01. String Quartet No. 2 in G, Op. 18 No. 2 - I. Allegro.wav" WAVE TRACK 01 AUDIO TITLE "String Quartet No. 2 in G, Op. 18 No. 2 - I. Allegro" PERFORMER "Ludwig van Beethoven / Alban Berg Quartett" ISRC GBAYC8500521 PREGAP 00:00:30 INDEX 01 00:00:00 TRACK 02 AUDIO TITLE "String Quartet No. 2 in G, Op. 18 No. 2 - II. Adagio cantabile - Allegro - Tempo I" PERFORMER "Ludwig van Beethoven / Alban Berg Quartett" ISRC GBAYC8500522 INDEX 00 07:58:17FILE "02. String Quartet No. 2 in G, Op. 18 No. 2 - II. Adagio cantabile - Allegro - Tempo I.wav" WAVE INDEX 01 00:00:00 TRACK 03 AUDIO TITLE "String Quartet No. 2 in G, Op. 18 No. 2 - III. Scherzo: Allegro - Trio" PERFORMER "Ludwig van Beethoven / Alban Berg Quartett" ISRC GBAYC8500523 INDEX 00 06:29:18FILE "03. String Quartet No. 2 in G, Op. 18 No. 2 - III. Scherzo- Allegro - Trio.wav" WAVE INDEX 01 00:00:00 TRACK 04 AUDIO TITLE "String Quartet No. 2 in G, Op. 18 No. 2 - IV. Allegro molto, quasi presto" PERFORMER "Ludwig van Beethoven / Alban Berg Quartett" ISRC GBAYC8500524 INDEX 00 04:24:14FILE "04. String Quartet No. 2 in G, Op. 18 No. 2 - IV. Allegro molto, quasi presto.wav" WAVE INDEX 01 00:00:00 TRACK 05 AUDIO TITLE "String Quartet No. 6 in B flat, Op. 18 No. 6 - I. Allegro con brio" PERFORMER "Ludwig van Beethoven / Alban Berg Quartett" ISRC GBAYC8500541 INDEX 00 05:15:28FILE "05. String Quartet No. 6 in B flat, Op. 18 No. 6 - I. Allegro con brio.wav" WAVE INDEX 01 00:00:00 TRACK 06 AUDIO TITLE "String Quartet No. 6 in B flat, Op. 18 No. 6 - II. Adagio ma non troppo" PERFORMER "Ludwig van Beethoven / Alban Berg Quartett" ISRC GBAYC8500542 INDEX 00 05:43:65FILE "06. String Quartet No. 6 in B flat, Op. 18 No. 6 - II. Adagio ma non troppo.wav" WAVE INDEX 01 00:00:00 TRACK 07 AUDIO TITLE "String Quartet No. 6 in B flat, Op. 18 No. 6 - III. Scherzo: Allegro - Trio" PERFORMER "Ludwig van Beethoven / Alban Berg Quartett" ISRC GBAYC8500543 INDEX 00 06:57:22FILE "07. String Quartet No. 6 in B flat, Op. 18 No. 6 - III. Scherzo- Allegro - Trio.wav" WAVE INDEX 01 00:00:00 TRACK 08 AUDIO TITLE "String Quartet No. 6 in B flat, Op. 18 No. 6 - IV. Adagio (La Malinconia) - Allegretto quasi allegro" PERFORMER "Ludwig van Beethoven / Alban Berg Quartett" ISRC GBAYC8500544 INDEX 00 03:07:56FILE "08. String Quartet No. 6 in B flat, Op. 18 No. 6 - IV. Adagio (La Malinconia) - Allegretto quasi allegro.wav" WAVE INDEX 01 00:00:00 TRACK 09 AUDIO TITLE "String Quartet No. 16 in F, Op. 135 (Kakuska) - I. Allegretto" PERFORMER "Ludwig van Beethoven / Alban Berg Quartett" ISRC GBAYC8100149 INDEX 00 08:29:48FILE "09. String Quartet No. 16 in F, Op. 135 (Kakuska) - I. Allegretto.wav" WAVE INDEX 01 00:00:00 TRACK 10 AUDIO TITLE "String Quartet No. 16 in F, Op. 135 (Kakuska) - II. Vivace" PERFORMER "Ludwig van Beethoven / Alban Berg Quartett" ISRC GBAYC8100150 INDEX 00 06:18:11FILE "10. String Quartet No. 16 in F, Op. 135 (Kakuska) - II. Vivace.wav" WAVE INDEX 01 00:00:00 TRACK 11 AUDIO TITLE "String Quartet No. 16 in F, Op. 135( Kakuska) - III. Lento assai, cantante e tranquillo" PERFORMER "Ludwig van Beethoven / Alban Berg Quartett" ISRC GBAYC8100151 INDEX 00 03:24:12FILE "11. String Quartet No. 16 in F, Op. 135( Kakuska) - III. Lento assai, cantante e tranquillo.wav" WAVE INDEX 01 00:00:00 TRACK 12 AUDIO TITLE "String Quartet No. 16 in F, Op. 135 (Kakuska) - IV. Grave, ma non troppo tratto - Allegro" PERFORMER "Ludwig van Beethoven / Alban Berg Quartett" ISRC GBAYC8100152 INDEX 00 07:46:10FILE "12. String Quartet No. 16 in F, Op. 135 (Kakuska) - IV. Grave, ma non troppo tratto - Allegro.wav" WAVE INDEX 01 00:00:00

Disk 3

REM GENRE ClassicalREM DATE 2012REM DISCID 9D10FB0CREM COMMENT "ExactAudioCopy v1.0b3"CATALOG 5099970441628PERFORMER "Ludwig van Beethoven / Alban Berg Quartett"TITLE "Complete String Quartets (Alban Berg Quartett) (Studio) Disk 3 of 7"FILE "01. String Quartet No. 3 in d, Op. 18 No. 3 - I. Allegro.wav" WAVE TRACK 01 AUDIO TITLE "String Quartet No. 3 in d, Op. 18 No. 3 - I. Allegro" PERFORMER "Ludwig van Beethoven / Alban Berg Quartett" ISRC GBAYC8500526 INDEX 01 00:00:00 TRACK 02 AUDIO TITLE "String Quartet No. 3 in d, Op. 18 No. 3 - II. Andante con moto" PERFORMER "Ludwig van Beethoven / Alban Berg Quartett" ISRC GBAYC8500527 INDEX 00 07:35:05FILE "02. String Quartet No. 3 in d, Op. 18 No. 3 - II. Andante con moto.wav" WAVE INDEX 01 00:00:00 TRACK 03 AUDIO TITLE "String Quartet No. 3 in d, Op. 18 No. 3 - III. Allegro" PERFORMER "Ludwig van Beethoven / Alban Berg Quartett" ISRC GBAYC8500528 INDEX 00 07:53:08FILE "03. String Quartet No. 3 in d, Op. 18 No. 3 - III. Allegro.wav" WAVE INDEX 01 00:00:00 TRACK 04 AUDIO TITLE "String Quartet No. 3 in d, Op. 18 No. 3 - IV. Presto" PERFORMER "Ludwig van Beethoven / Alban Berg Quartett" ISRC GBAYC8500529 INDEX 00 02:58:58FILE "04. String Quartet No. 3 in d, Op. 18 No. 3 - IV. Presto.wav" WAVE INDEX 01 00:00:00 TRACK 05 AUDIO TITLE "String Quartet No. 5 in A, Op. 18 No. 5 - I. Allegro" PERFORMER "Ludwig van Beethoven / Alban Berg Quartett" ISRC GBAYC8500536 INDEX 00 06:28:28FILE "05. String Quartet No. 5 in A, Op. 18 No. 5 - I. Allegro.wav" WAVE INDEX 01 00:00:00 TRACK 06 AUDIO TITLE "String Quartet No. 5 in A, Op. 18 No. 5 - II. Menuetto - Trio" PERFORMER "Ludwig van Beethoven / Alban Berg Quartett" ISRC GBAYC8500537 INDEX 00 06:38:17FILE "06. String Quartet No. 5 in A, Op. 18 No. 5 - II. Menuetto - Trio.wav" WAVE INDEX 01 00:00:00 TRACK 07 AUDIO TITLE "String Quartet No. 5 in A, Op. 18 No. 5 - III. Andante cantabile" PERFORMER "Ludwig van Beethoven / Alban Berg Quartett" ISRC GBAYC8500538 INDEX 00 04:20:57FILE "07. String Quartet No. 5 in A, Op. 18 No. 5 - III. Andante cantabile.wav" WAVE INDEX 01 00:00:00 TRACK 08 AUDIO TITLE "String Quartet No. 5 in A, Op. 18 No. 5 - IV. Allegro" PERFORMER "Ludwig van Beethoven / Alban Berg Quartett" ISRC GBAYC8500539 INDEX 00 09:52:39FILE "08. String Quartet No. 5 in A, Op. 18 No. 5 - IV. Allegro.wav" WAVE INDEX 01 00:00:00 TRACK 09 AUDIO TITLE "String Quartet No. 11 in f, Op. 95 'Serioso' - I. Allegro con brio" PERFORMER "Ludwig van Beethoven / Alban Berg Quartett" ISRC GBAYC1201021 INDEX 00 06:45:59FILE "09. String Quartet No. 11 in f, Op. 95 'Serioso' - I. Allegro con brio.wav" WAVE INDEX 01 00:00:00 TRACK 10 AUDIO TITLE "String Quartet No. 11 in f, Op. 95 'Serioso' - II. Allegretto ma non troppo" PERFORMER "Ludwig van Beethoven / Alban Berg Quartett" ISRC GBAYC1201022 INDEX 00 03:52:64FILE "10. String Quartet No. 11 in f, Op. 95 'Serioso' - II. Allegretto ma non troppo.wav" WAVE INDEX 01 00:00:00FILE "11. String Quartet No. 11 in f, Op. 95 'Serioso' - III. Allegro assai vivace, ma serioso.wav" WAVE TRACK 11 AUDIO TITLE "String Quartet No. 11 in f, Op. 95 'Serioso' - III. Allegro assai vivace, ma serioso" PERFORMER "Ludwig van Beethoven / Alban Berg Quartett" ISRC GBAYC1201023 INDEX 01 00:00:00 TRACK 12 AUDIO TITLE "String Quartet No. 11 in f, Op. 95 'Serioso' - IV. Larghetto espressivo - Allegretto agitato - Allegro" PERFORMER "Ludwig van Beethoven / Alban Berg Quartett" ISRC GBAYC1201024 INDEX 00 04:23:38FILE "12. String Quartet No. 11 in f, Op. 95 'Serioso' - IV. Larghetto espressivo - Allegretto agitato - Allegro.wav" WAVE INDEX 01 00:00:00

Disk 4

REM GENRE ClassicalREM DATE 2012REM DISCID 8211BC0BREM COMMENT "ExactAudioCopy v1.0b3"CATALOG 5099970441727PERFORMER "Ludwig van Beethoven / Alban Berg Quartett"TITLE "Complete String Quartets (Alban Berg Quartett) (Studio) Disk 4 of 7"FILE "01. String Quartet No. 4 in c, Op. 18 No. 4 - I. Allegro ma non tanto.wav" WAVE TRACK 01 AUDIO TITLE "String Quartet No. 4 in c, Op. 18 No. 4 - I. Allegro ma non tanto" PERFORMER "Ludwig van Beethoven / Alban Berg Quartett" ISRC GBAYC8500531 INDEX 01 00:00:00 TRACK 02 AUDIO TITLE "String Quartet No. 4 in c, Op. 18 No. 4 - II. Scherzo: Andante scherzoso quasi allegretto" PERFORMER "Ludwig van Beethoven / Alban Berg Quartett" ISRC GBAYC8500532 INDEX 00 08:25:12FILE "02. String Quartet No. 4 in c, Op. 18 No. 4 - II. Scherzo- Andante scherzoso quasi allegretto.wav" WAVE INDEX 01 00:00:00 TRACK 03 AUDIO TITLE "String Quartet No. 4 in c, Op. 18 No. 4 - III. Menuetto: Allegretto - Trio" PERFORMER "Ludwig van Beethoven / Alban Berg Quartett" ISRC GBAYC8500533 INDEX 00 06:57:32FILE "03. String Quartet No. 4 in c, Op. 18 No. 4 - III. Menuetto- Allegretto - Trio.wav" WAVE INDEX 01 00:00:00FILE "04. String Quartet No. 4 in c, Op. 18 No. 4 - IV. Allegro.wav" WAVE TRACK 04 AUDIO TITLE "String Quartet No. 4 in c, Op. 18 No. 4 - IV. Allegro" PERFORMER "Ludwig van Beethoven / Alban Berg Quartett" ISRC GBAYC8500534 INDEX 01 00:00:00 TRACK 05 AUDIO TITLE "String Quartet No. 13 in B flat, Op. 130 (Kakuska) - I. Adagio ma non troppo - Allegro" PERFORMER "Ludwig van Beethoven / Alban Berg Quartett" ISRC GBAYC8200463 INDEX 00 04:25:37FILE "05. String Quartet No. 13 in B flat, Op. 130 (Kakuska) - I. Adagio ma non troppo - Allegro.wav" WAVE INDEX 01 00:00:00 TRACK 06 AUDIO TITLE "String Quartet No. 13 in B flat, Op. 130 (Kakuska) - II. Presto" PERFORMER "Ludwig van Beethoven / Alban Berg Quartett" ISRC GBAYC8200464 INDEX 00 09:49:42FILE "06. String Quartet No. 13 in B flat, Op. 130 (Kakuska) - II. Presto.wav" WAVE INDEX 01 00:00:00 TRACK 07 AUDIO TITLE "String Quartet No. 13 in B flat, Op. 130 (Kakuska) - III. Andante con moto, ma non troppo" PERFORMER "Ludwig van Beethoven / Alban Berg Quartett" ISRC GBAYC8200465 INDEX 00 01:57:67FILE "07. String Quartet No. 13 in B flat, Op. 130 (Kakuska) - III. Andante con moto, ma non troppo.wav" WAVE INDEX 01 00:00:00 TRACK 08 AUDIO TITLE "String Quartet No. 13 in B flat, Op. 130 (Kakuska) - IV. Alla danza tedesca- Allegro assai" PERFORMER "Ludwig van Beethoven / Alban Berg Quartett" ISRC GBAYC8200466 INDEX 00 06:53:65FILE "08. String Quartet No. 13 in B flat, Op. 130 (Kakuska) - IV. Alla danza tedesca- Allegro assai.wav" WAVE INDEX 01 00:00:00 TRACK 09 AUDIO TITLE "String Quartet No. 13 in B flat, Op. 130 (Kakuska) - V. Cavatina: Adagio molto espressivo" PERFORMER "Ludwig van Beethoven / Alban Berg Quartett" ISRC GBAYC8200467 INDEX 00 02:57:32FILE "09. String Quartet No. 13 in B flat, Op. 130 (Kakuska) - V. Cavatina- Adagio molto espressivo.wav" WAVE INDEX 01 00:00:00 TRACK 10 AUDIO TITLE "Große Fuge in B flat, Op. 133 (Kakuska)" PERFORMER "Ludwig van Beethoven / Alban Berg Quartett" ISRC GBAYC8200833 INDEX 00 07:07:27FILE "10. Große Fuge in B flat, Op. 133 (Kakuska).wav" WAVE INDEX 01 00:00:00 TRACK 11 AUDIO TITLE "String Quartet No. 13 in B flat, Op. 130 (Kakuska) - VI. Finale: Allegro" PERFORMER "Ludwig van Beethoven / Alban Berg Quartett" ISRC GBAYC8200468 INDEX 00 15:33:51FILE "11. String Quartet No. 13 in B flat, Op. 130 (Kakuska) - VI. Finale- Allegro.wav" WAVE INDEX 01 00:00:00

Disk 5

REM GENRE ClassicalREM DATE 2012REM DISCID 88106E08REM COMMENT "ExactAudioCopy v1.0b3"CATALOG 5099970441826PERFORMER "Ludwig van Beethoven / Alban Berg Quartett"TITLE "Complete String Quartets (Alban Berg Quartett) (Studio) Disk 5 of 7"FILE "01. String Quartet No. 8 in e, Op. 59 No. 2 'Rasumovsky' - I. Allegro.wav" WAVE TRACK 01 AUDIO TITLE "String Quartet No. 8 in e, Op. 59 No. 2 'Rasumovsky' - I. Allegro" PERFORMER "Ludwig van Beethoven / Alban Berg Quartett" ISRC GBAYC7900111 INDEX 01 00:00:00 TRACK 02 AUDIO TITLE "String Quartet No. 8 in e, Op. 59 No. 2 'Rasumovsky' - II. Molto adagio" PERFORMER "Ludwig van Beethoven / Alban Berg Quartett" ISRC GBAYC7900112 INDEX 00 08:56:73FILE "02. String Quartet No. 8 in e, Op. 59 No. 2 'Rasumovsky' - II. Molto adagio.wav" WAVE INDEX 01 00:00:00 TRACK 03 AUDIO TITLE "String Quartet No. 8 in e, Op. 59 No. 2 'Rasumovsky' - III. Allegretto" PERFORMER "Ludwig van Beethoven / Alban Berg Quartett" ISRC GBAYC7900113 INDEX 00 12:21:27FILE "03. String Quartet No. 8 in e, Op. 59 No. 2 'Rasumovsky' - III. Allegretto.wav" WAVE INDEX 01 00:00:00 TRACK 04 AUDIO TITLE "String Quartet No. 8 in e, Op. 59 No. 2 'Rasumovsky' - IV. Finale: Presto" PERFORMER "Ludwig van Beethoven / Alban Berg Quartett" ISRC GBAYC7900114 INDEX 00 06:26:26FILE "04. String Quartet No. 8 in e, Op. 59 No. 2 'Rasumovsky' - IV. Finale- Presto.wav" WAVE INDEX 01 00:00:00 TRACK 05 AUDIO TITLE "String Quartet No. 12 in E flat, Op. 127 (Kakuska) - I. Maestoso - Allegro" PERFORMER "Ludwig van Beethoven / Alban Berg Quartett" ISRC GBAYC8100143 INDEX 00 05:09:47FILE "05. String Quartet No. 12 in E flat, Op. 127 (Kakuska) - I. Maestoso - Allegro.wav" WAVE INDEX 01 00:00:00 TRACK 06 AUDIO TITLE "String Quartet No. 12 in E flat, Op. 127 (Kakuska) - II. Adagio ma non troppo e molto cantabile" PERFORMER "Ludwig van Beethoven / Alban Berg Quartett" ISRC GBAYC8100144 INDEX 00 06:39:18FILE "06. String Quartet No. 12 in E flat, Op. 127 (Kakuska) - II. Adagio ma non troppo e molto cantabile.wav" WAVE INDEX 01 00:00:00 TRACK 07 AUDIO TITLE "String Quartet No. 12 in E flat, Op. 127 (Kakuska) - III. Scherzando vivace" PERFORMER "Ludwig van Beethoven / Alban Berg Quartett" ISRC GBAYC8100145 INDEX 00 16:38:11FILE "07. String Quartet No. 12 in E flat, Op. 127 (Kakuska) - III. Scherzando vivace.wav" WAVE INDEX 01 00:00:00 TRACK 08 AUDIO TITLE "String Quartet No. 12 in E flat, Op. 127 (Kakuska) - IV. Finale" PERFORMER "Ludwig van Beethoven / Alban Berg Quartett" ISRC GBAYC8100146 INDEX 00 06:49:23FILE "08. String Quartet No. 12 in E flat, Op. 127 (Kakuska) - IV. Finale.wav" WAVE INDEX 01 00:00:00

Disk 6

REM GENRE ClassicalREM DATE 2012REM DISCID A80FBC0BREM COMMENT "ExactAudioCopy v1.0b3"CATALOG 5099970441925PERFORMER "Ludwig van Beethoven / Alban Berg Quartett"TITLE "Complete String Quartets (Alban Berg Quartett) (Studio) Disk 6 of 7"FILE "01. String Quartet No. 9 in C, Op. 59 No. 3 'Rasumovsky' - I. Introduzione- Andante con moto - Allegro vivace.wav" WAVE TRACK 01 AUDIO TITLE "String Quartet No. 9 in C, Op. 59 No. 3 'Rasumovsky' - I. Introduzione- Andante con moto - Allegro vivace" PERFORMER "Ludwig van Beethoven / Alban Berg Quartett" ISRC GBAYC1201026 INDEX 01 00:00:00 TRACK 02 AUDIO TITLE "String Quartet No. 9 in C, Op. 59 No. 3 'Rasumovsky' - II. Andante con moto quasi allegretto" PERFORMER "Ludwig van Beethoven / Alban Berg Quartett" ISRC GBAYC1201027 INDEX 00 08:06:47FILE "02. String Quartet No. 9 in C, Op. 59 No. 3 'Rasumovsky' - II. Andante con moto quasi allegretto.wav" WAVE INDEX 01 00:00:00 TRACK 03 AUDIO TITLE "String Quartet No. 9 in C, Op. 59 No. 3 'Rasumovsky' - III. Menuetto: Grazioso - Trio" PERFORMER "Ludwig van Beethoven / Alban Berg Quartett" ISRC GBAYC1201028 INDEX 00 10:08:11FILE "03. String Quartet No. 9 in C, Op. 59 No. 3 'Rasumovsky' - III. Menuetto- Grazioso - Trio.wav" WAVE INDEX 01 00:00:00FILE "04. String Quartet No. 9 in C, Op. 59 No. 3 'Rasumovsky' - IV. Allegro molto.wav" WAVE TRACK 04 AUDIO TITLE "String Quartet No. 9 in C, Op. 59 No. 3 'Rasumovsky' - IV. Allegro molto" PERFORMER "Ludwig van Beethoven / Alban Berg Quartett" ISRC GBAYC1201029 INDEX 01 00:00:00 TRACK 05 AUDIO TITLE "String Quartet No. 14 in c sharp, Op. 131 (Kakuska) - I. Adagio ma non troppo e molto espressivo" PERFORMER "Ludwig van Beethoven / Alban Berg Quartett" ISRC GBAYC8300615 INDEX 00 05:59:56FILE "05. String Quartet No. 14 in c sharp, Op. 131 (Kakuska) - I. Adagio ma non troppo e molto espressivo.wav" WAVE INDEX 01 00:00:00FILE "06. String Quartet No. 14 in c sharp, Op. 131 (Kakuska) - II. Allegro molto vivace.wav" WAVE TRACK 06 AUDIO TITLE "String Quartet No. 14 in c sharp, Op. 131 (Kakuska) - II. Allegro molto vivace" PERFORMER "Ludwig van Beethoven / Alban Berg Quartett" ISRC GBAYC8300616 INDEX 01 00:00:00FILE "07. String Quartet No. 14 in c sharp, Op. 131 (Kakuska) - III. Allegro molto moderato - Adagio - Più vivace.wav" WAVE TRACK 07 AUDIO TITLE "String Quartet No. 14 in c sharp, Op. 131 (Kakuska) - III. Allegro molto moderato - Adagio - Più vivace" PERFORMER "Ludwig van Beethoven / Alban Berg Quartett" ISRC GBAYC8300617 INDEX 01 00:00:00FILE "08. String Quartet No. 14 in c sharp, Op. 131 (Kakuska) - IV. Andante ma non troppo e molto cantabile.wav" WAVE TRACK 08 AUDIO TITLE "String Quartet No. 14 in c sharp, Op. 131 (Kakuska) - IV. Andante ma non troppo e molto cantabile" PERFORMER "Ludwig van Beethoven / Alban Berg Quartett" ISRC GBAYC8300618 INDEX 01 00:00:00FILE "09. String Quartet No. 14 in c sharp, Op. 131 (Kakuska) - V. Presto.wav" WAVE TRACK 09 AUDIO TITLE "String Quartet No. 14 in c sharp, Op. 131 (Kakuska) - V. Presto" PERFORMER "Ludwig van Beethoven / Alban Berg Quartett" ISRC GBAYC8300619 INDEX 01 00:00:00FILE "10. String Quartet No. 14 in c sharp, Op. 131 (Kakuska) - VI. Adagio quasi un poco andante.wav" WAVE TRACK 10 AUDIO TITLE "String Quartet No. 14 in c sharp, Op. 131 (Kakuska) - VI. Adagio quasi un poco andante" PERFORMER "Ludwig van Beethoven / Alban Berg Quartett" ISRC GBAYC8300620 INDEX 01 00:00:00FILE "11. String Quartet No. 14 in c sharp, Op. 131 (Kakuska) - VII. Allegro.wav" WAVE TRACK 11 AUDIO TITLE "String Quartet No. 14 in c sharp, Op. 131 (Kakuska) - VII. Allegro" PERFORMER "Ludwig van Beethoven / Alban Berg Quartett" ISRC GBAYC8300621 INDEX 01 00:00:00

Disk 7

REM GENRE ClassicalREM DATE 2012REM DISCID 8D10D409REM COMMENT "ExactAudioCopy v1.0b3"CATALOG 5099970442021PERFORMER "Ludwig van Beethoven / Alban Berg Quartett"TITLE "Complete String Quartets (Alban Berg Quartett) (Studio) Disk 7 of 7"FILE "01. String Quartet No. 10 in E flat, Op. 74 'Harp' - I. Poco adagio - Allegro.wav" WAVE TRACK 01 AUDIO TITLE "String Quartet No. 10 in E flat, Op. 74 'Harp' - I. Poco adagio - Allegro" PERFORMER "Ludwig van Beethoven / Alban Berg Quartett" ISRC GBAYC1201031 INDEX 01 00:00:00 TRACK 02 AUDIO TITLE "String Quartet No. 10 in E flat, Op. 74 'Harp' - II. Adagio ma non troppo" PERFORMER "Ludwig van Beethoven / Alban Berg Quartett" ISRC GBAYC1201032 INDEX 00 09:23:10FILE "02. String Quartet No. 10 in E flat, Op. 74 'Harp' - II. Adagio ma non troppo.wav" WAVE INDEX 01 00:00:00 TRACK 03 AUDIO TITLE "String Quartet No. 10 in E flat, Op. 74 'Harp' - III. Presto" PERFORMER "Ludwig van Beethoven / Alban Berg Quartett" ISRC GBAYC1201033 INDEX 00 09:29:21FILE "03. String Quartet No. 10 in E flat, Op. 74 'Harp' - III. Presto.wav" WAVE INDEX 01 00:00:00FILE "04. String Quartet No. 10 in E flat, Op. 74 'Harp' - IV. Allegretto con variazioni.wav" WAVE TRACK 04 AUDIO TITLE "String Quartet No. 10 in E flat, Op. 74 'Harp' - IV. Allegretto con variazioni" PERFORMER "Ludwig van Beethoven / Alban Berg Quartett" ISRC GBAYC1201034 INDEX 01 00:00:00 TRACK 05 AUDIO TITLE "String Quartet No. 15 in a, Op. 132 (Kakuska) - I. Assai sostenuto - Allegro" PERFORMER "Ludwig van Beethoven / Alban Berg Quartett" ISRC GBAYC8300623 INDEX 00 06:30:31FILE "05. String Quartet No. 15 in a, Op. 132 (Kakuska) - I. Assai sostenuto - Allegro.wav" WAVE INDEX 01 00:00:00 TRACK 06 AUDIO TITLE "String Quartet No. 15 in a, Op. 132 (Kakuska) - II. Allegro ma non tanto" PERFORMER "Ludwig van Beethoven / Alban Berg Quartett" ISRC GBAYC8300624 INDEX 00 09:16:52FILE "06. String Quartet No. 15 in a, Op. 132 (Kakuska) - II. Allegro ma non tanto.wav" WAVE INDEX 01 00:00:00 TRACK 07 AUDIO TITLE "String Quartet No. 15 in a, Op. 132 (Kakuska) - III. Molto adagio- Heiliger Dankgesang eines Genesenen an die Gottheit, in der lydischen Tonart" PERFORMER "Ludwig van Beethoven / Alban Berg Quartett" ISRC GBAYC8300625 INDEX 00 08:22:28FILE "07. String Quartet No. 15 in a, Op. 132 (Kakuska) - III. Molto adagio- Heiliger Dankgesang eines Genesenen an die Gottheit, in der lydischen Tonart.wav" WAVE INDEX 01 00:00:00 TRACK 08 AUDIO TITLE "String Quartet No. 15 in a, Op. 132 (Kakuska) - IV. Alla marcia, assai vivace -" PERFORMER "Ludwig van Beethoven / Alban Berg Quartett" ISRC GBAYC8300626 INDEX 00 15:04:06FILE "08. String Quartet No. 15 in a, Op. 132 (Kakuska) - IV. Alla marcia, assai vivace -.wav" WAVE INDEX 01 00:00:00FILE "09. String Quartet No. 15 in a, Op. 132 (Kakuska) - V. Finale- Allegro appassionato.wav" WAVE TRACK 09 AUDIO TITLE "String Quartet No. 15 in a, Op. 132 (Kakuska) - V. Finale: Allegro appassionato" PERFORMER "Ludwig van Beethoven / Alban Berg Quartett" ISRC GBAYC8300627 INDEX 01 00:00:00



Показать сообщения:    

Текущее время: 08-Дек 17:17

Часовой пояс: UTC + 3


Вы не можете начинать темы
Вы не можете отвечать на сообщения
Вы не можете редактировать свои сообщения
Вы не можете удалять свои сообщения
Вы не можете голосовать в опросах
Вы не можете прикреплять файлы к сообщениям
Вы не можете скачивать файлы