(Classical) Bach, C.P.E.; Bach, J.C. - Flute Concertos (Milos Jurkovic, Bohdan Warchal) - 1995, FLAC (tracks+.cue) lossless


 

[Цитировать]

Bach, C.P.E.; Bach, J.C. - Flute Concertos (Milos Jurkovic, Bohdan Warchal)
Жанр: Classical
Страна-производитель диска: Germany
Год издания диска: 1995
Издатель (лейбл): Edition Classic
Номер по каталогу: EC 1273
Дата записи: 1995
Аудиокодек: FLAC
Тип рипа: tracks+.cue
Битрейт аудио: lossless
Продолжительность: 42:53
Источник: собственный рип
сайт-источник/ник/другое: Из личной коллекции
Наличие сканов в содержимом раздачи: да
Треклист:
1-3. Bach, C.P.E. - Flute Concerto in D minor
5-6. Bach, J.C. - Flute Concerto in D major
Исполнители:
Milos Jurkovic - flute
Slovak Chamber Orchestra, Bohdan Warchal - conductor

Лог создания рипа

Exact Audio Copy V0.99 prebeta 5 from 4. May 2009
EAC extraction logfile from 4. May 2010, 13:00
Slovak Chamber Orchestra, Milos Jurkovic, Bohdan Warchal / C.Ph.E. Bach - J.Ch. Bach - Flute concertos
Used drive : PLEXTOR DVDR PX-800A Adapter: 1 ID: 0
Read mode : SecureUtilize accurate stream : YesDefeat audio cache : YesMake use of C2 pointers : No
Read offset correction : 48Overread into Lead-In and Lead-Out : NoFill up missing offset samples with silence : YesDelete leading and trailing silent blocks : NoNull samples used in CRC calculations : NoUsed interface : Native Win32 interface for Win NT & 2000Gap handling : Appended to previous track
Used output format : User Defined EncoderSelected bitrate : 1024 kBit/sQuality : HighAdd ID3 tag : NoCommand line compressor : C:\Program Files\Exact Audio Copy\FLAC\FLAC.EXEAdditional command line options : -8 -V -T "ARTIST=%a" -T "TITLE=%t" -T "ALBUM=%g" -T "DATE=%y" -T "TRACKNUMBER=%n" -T "GENRE=%m" -T "COMMENT=%e" %s -o %d
TOC of the extracted CD
Track | Start | Length | Start sector | End sector --------------------------------------------------------- 1 | 0:00.30 | 7:32.09 | 30 | 33938 2 | 7:32.39 | 9:46.54 | 33939 | 77942 3 | 17:19.18 | 7:11.66 | 77943 | 110333 4 | 24:31.09 | 8:49.19 | 110334 | 150027 5 | 33:20.28 | 4:08.43 | 150028 | 168670 6 | 37:28.71 | 5:23.00 | 168671 | 192895
Track 1
Filename E:\1111\Bach,C.P.E.;Bach,J.C.Flute_Concertos-Milos_Jurkovic,Bohdan_Warchal(Point)\01 - Konzert fьr flцte und streicher, d-moll, Wq.22 - Allegro.wav
Pre-gap length 0:00:02.30
Peak level 90.7 % Track quality 100.0 % Test CRC 801266F4 Copy CRC 801266F4 Track not present in AccurateRip database Copy OK
Track 2
Filename E:\1111\Bach,C.P.E.;Bach,J.C.Flute_Concertos-Milos_Jurkovic,Bohdan_Warchal(Point)\02 - Konzert fьr flцte und streicher, d-moll, Wq.22 - Un poco andante.wav
Peak level 48.6 % Track quality 99.9 % Test CRC 9712D7D2 Copy CRC 9712D7D2 Track not present in AccurateRip database Copy OK
Track 3
Filename E:\1111\Bach,C.P.E.;Bach,J.C.Flute_Concertos-Milos_Jurkovic,Bohdan_Warchal(Point)\03 - Konzert fьr flцte und streicher, d-moll, Wq.22 - Allegro di molto.wav
Peak level 90.7 % Track quality 99.9 % Test CRC EAD2F890 Copy CRC EAD2F890 Track not present in AccurateRip database Copy OK
Track 4
Filename E:\1111\Bach,C.P.E.;Bach,J.C.Flute_Concertos-Milos_Jurkovic,Bohdan_Warchal(Point)\04 - Konzert fьr flцte und orchester, d-dur - Allegro con brio.wav
Peak level 50.6 % Track quality 100.0 % Test CRC 09404AF3 Copy CRC 09404AF3 Track not present in AccurateRip database Copy OK
Track 5
Filename E:\1111\Bach,C.P.E.;Bach,J.C.Flute_Concertos-Milos_Jurkovic,Bohdan_Warchal(Point)\05 - Konzert fьr flцte und orchester, d-dur - Adagio.wav
Peak level 35.1 % Track quality 100.0 % Test CRC FD94B28F Copy CRC FD94B28F Track not present in AccurateRip database Copy OK
Track 6
Filename E:\1111\Bach,C.P.E.;Bach,J.C.Flute_Concertos-Milos_Jurkovic,Bohdan_Warchal(Point)\06 - Konzert fьr flцte und orchester, d-dur - Allegretto.wav
Peak level 58.0 % Track quality 100.0 % Test CRC 9E30DA88 Copy CRC 9E30DA88 Track not present in AccurateRip database Copy OK
None of the tracks are present in the AccurateRip database
No errors occurred
End of status report

Содержание индексной карты (.CUE)

REM GENRE ClassicalREM DATE 1994REM DISCID 310A0B06REM COMMENT "ExactAudioCopy v0.99pb5"PERFORMER "Slovak Chamber Orchestra, Milos Jurkovic, Bohdan Warchal"TITLE "C.Ph.E. Bach - J.Ch. Bach - Flute concertos"FILE "01 - Konzert fьr flцte und streicher, d-moll, Wq.22 - Allegro.wav" WAVE TRACK 01 AUDIO TITLE "Konzert fьr flцte und streicher, d-moll, Wq.22 - Allegro" PERFORMER "Slovak Chamber Orchestra, Milos Jurkovic, Bohdan Warchal" PREGAP 00:00:30 INDEX 01 00:00:00FILE "02 - Konzert fьr flцte und streicher, d-moll, Wq.22 - Un poco andante.wav" WAVE TRACK 02 AUDIO TITLE "Konzert fьr flцte und streicher, d-moll, Wq.22 - Un poco andante" PERFORMER "Slovak Chamber Orchestra, Milos Jurkovic, Bohdan Warchal" INDEX 01 00:00:00FILE "03 - Konzert fьr flцte und streicher, d-moll, Wq.22 - Allegro di molto.wav" WAVE TRACK 03 AUDIO TITLE "Konzert fьr flцte und streicher, d-moll, Wq.22 - Allegro di molto" PERFORMER "Slovak Chamber Orchestra, Milos Jurkovic, Bohdan Warchal" INDEX 01 00:00:00FILE "04 - Konzert fьr flцte und orchester, d-dur - Allegro con brio.wav" WAVE TRACK 04 AUDIO TITLE "Konzert fьr flцte und orchester, d-dur - Allegro con brio" PERFORMER "Slovak Chamber Orchestra, Milos Jurkovic, Bohdan Warchal" INDEX 01 00:00:00FILE "05 - Konzert fьr flцte und orchester, d-dur - Adagio.wav" WAVE TRACK 05 AUDIO TITLE "Konzert fьr flцte und orchester, d-dur - Adagio" PERFORMER "Slovak Chamber Orchestra, Milos Jurkovic, Bohdan Warchal" INDEX 01 00:00:00FILE "06 - Konzert fьr flцte und orchester, d-dur - Allegretto.wav" WAVE TRACK 06 AUDIO TITLE "Konzert fьr flцte und orchester, d-dur - Allegretto" PERFORMER "Slovak Chamber Orchestra, Milos Jurkovic, Bohdan Warchal" INDEX 01 00:00:00



Показать сообщения:    

Текущее время: 05-Дек 01:23

Часовой пояс: UTC + 3


Вы не можете начинать темы
Вы не можете отвечать на сообщения
Вы не можете редактировать свои сообщения
Вы не можете удалять свои сообщения
Вы не можете голосовать в опросах
Вы не можете прикреплять файлы к сообщениям
Вы не можете скачивать файлы