(Classical) Mozart arranged by Hummel - 7 Piano Concertos (Nos. 10, 18, 20, 22, 24, 25, 26); Symphony No.40 - Fumiko Shiraga, Henrik Wiese, Peter Clemente, Tibor Benyi - 2013, FLAC (image+.cue) lossless


 

[Цитировать]

Mozart arranged by Hummel - 7 Piano Concertos (Nos. 10, 18, 20, 22, 24, 25, 26); Symphony No.40 - Fumiko Shiraga, Henrik Wiese, Peter Clemente, Tibor Bényi
Жанр: Classical
Страна-производитель диска: Sweden
Год издания диска: 2013
Издатель (лейбл): BIS
Номер по каталогу: BIS-CD-9043
Дата записи: 2003-2006
Аудиокодек: FLAC
Тип рипа: image+.cue
Битрейт аудио: lossless
Продолжительность: 4:14:48
Источник: собственный рип
Наличие сканов в содержимом раздачи: да
Треклист:
Wolfgang Amadeus Mozart (1756–91)
arranged by Johann Nepomuk Hummel (1778–1837)
CD1
[1]-[3] Piano Concerto No. 20 in D minor, K 466 (1785)
[4]-[6] Piano Concerto No. 25 in C major, K 503 (1786)
CD2
[1]-[3] Piano Concerto No. 10 in E flat major, K 365
(originally for two pianos)
[4]-[6] Piano Concerto No. 24 in C minor, K 491
CD3
[1]-[3] Piano Concerto No. 26 in D major, K 537 ‘Coronation Concerto’
[4]-[6] Piano Concerto No. 22 in E flat major, K 482
CD4
[1]-[3] Piano Concerto No. 18 in B flat major, K 456
[4]-[7] Symphony No. 40 in G minor, K 550
Исполнители:
Fumiko Shiraga piano
Henrik Wiese flute
Peter Clemente violin
Tibor Bényi cello

Лог создания рипа: CD1

Exact Audio Copy V1.0 beta 3 from 29. August 2011
EAC extraction logfile from 17. January 2015, 0:02
Fumiko Shiraga, Henrik Wiese, Peter Clemente, Tibor Benyi / Mozart arranged by Hummel - CD1
Used drive : HL-DT-STDVDRAM GU70N Adapter: 0 ID: 0
Read mode : SecureUtilize accurate stream : YesDefeat audio cache : YesMake use of C2 pointers : No
Read offset correction : 48Overread into Lead-In and Lead-Out : NoFill up missing offset samples with silence : YesDelete leading and trailing silent blocks : NoNull samples used in CRC calculations : YesUsed interface : Native Win32 interface for Win NT & 2000
Used output format : User Defined EncoderSelected bitrate : 128 kBit/sQuality : HighAdd ID3 tag : NoCommand line compressor : C:\Program Files (x86)\Exact Audio Copy\Flac\flac.exeAdditional command line options : -V -8 -T "Date=%year%" -T "Genre=%genre%" %source%
TOC of the extracted CD
Track | Start | Length | Start sector | End sector --------------------------------------------------------- 1 | 0:00.00 | 14:15.07 | 0 | 64131 2 | 14:15.07 | 9:31.38 | 64132 | 106994 3 | 23:46.45 | 8:23.57 | 106995 | 144776 4 | 32:10.27 | 15:41.28 | 144777 | 215379 5 | 47:51.55 | 8:04.22 | 215380 | 251701 6 | 55:56.02 | 10:02.00 | 251702 | 296851
Range status and errors
Selected range
Filename C:\temp\BIS-CD-9043 - Mozart arranged by Hummel - 7 Piano Concertos; Symphony No.40\CD1\Mozart arranged by Hummel - CD1.wav
Peak level 99.9 % Extraction speed 2.1 X Range quality 100.0 % Test CRC 02754D45 Copy CRC 02754D45 Copy OK
No errors occurred
AccurateRip summary
Track 1 cannot be verified as accurate (confidence 4) [BA20D244], AccurateRip returned [80BD60C3] (AR v2)Track 2 cannot be verified as accurate (confidence 4) [56C8A37C], AccurateRip returned [03B4DB7E] (AR v2)Track 3 cannot be verified as accurate (confidence 4) [05509C7A], AccurateRip returned [245D56B8] (AR v2)Track 4 cannot be verified as accurate (confidence 4) [A4E5992D], AccurateRip returned [11CDDDF2] (AR v2)Track 5 cannot be verified as accurate (confidence 4) [2A2FB765], AccurateRip returned [9DF5A255] (AR v2)Track 6 cannot be verified as accurate (confidence 4) [20FCC0E3], AccurateRip returned [2EB9C69F] (AR v2)
No tracks could be verified as accurateYou may have a different pressing from the one(s) in the database
End of status report
==== Log checksum 1BF5C3DED0DF470FB3B7FAA336E976914138DF53270C1935B6952FEDBB52A7A6 ====

Лог создания рипа: CD2

Exact Audio Copy V1.0 beta 3 from 29. August 2011
EAC extraction logfile from 17. January 2015, 0:31
Fumiko Shiraga, Henrik Wiese, Peter Clemente, Tibor Benyi / Mozart arranged by Hummel - CD2
Used drive : HL-DT-STDVDRAM GU70N Adapter: 0 ID: 0
Read mode : SecureUtilize accurate stream : YesDefeat audio cache : YesMake use of C2 pointers : No
Read offset correction : 48Overread into Lead-In and Lead-Out : NoFill up missing offset samples with silence : YesDelete leading and trailing silent blocks : NoNull samples used in CRC calculations : YesUsed interface : Native Win32 interface for Win NT & 2000
Used output format : User Defined EncoderSelected bitrate : 128 kBit/sQuality : HighAdd ID3 tag : NoCommand line compressor : C:\Program Files (x86)\Exact Audio Copy\Flac\flac.exeAdditional command line options : -V -8 -T "Date=%year%" -T "Genre=%genre%" %source%
TOC of the extracted CD
Track | Start | Length | Start sector | End sector --------------------------------------------------------- 1 | 0:00.00 | 9:21.72 | 0 | 42146 2 | 9:21.72 | 7:31.14 | 42147 | 75985 3 | 16:53.11 | 9:24.59 | 75986 | 118344 4 | 26:17.70 | 14:45.74 | 118345 | 184793 5 | 41:03.69 | 7:33.00 | 184794 | 218768 6 | 48:36.69 | 9:29.08 | 218769 | 261451
Range status and errors
Selected range
Filename C:\temp\BIS-CD-9043 - Mozart arranged by Hummel - 7 Piano Concertos; Symphony No.40\CD2\Mozart arranged by Hummel - CD2.wav
Peak level 94.4 % Extraction speed 5.1 X Range quality 99.9 % Test CRC B006A0F5 Copy CRC B006A0F5 Copy OK
No errors occurred
AccurateRip summary
Track 1 cannot be verified as accurate (confidence 2) [4E9C94A7], AccurateRip returned [E9D9C9A4] (AR v2)Track 2 cannot be verified as accurate (confidence 2) [35A05FBB], AccurateRip returned [308DF640] (AR v2)Track 3 cannot be verified as accurate (confidence 2) [834F0661], AccurateRip returned [BFC138F2] (AR v2)Track 4 cannot be verified as accurate (confidence 2) [0352301B], AccurateRip returned [D6EA795D] (AR v2)Track 5 cannot be verified as accurate (confidence 3) [ECFBB9CF], AccurateRip returned [777847FE] (AR v2)Track 6 cannot be verified as accurate (confidence 3) [AB128A53], AccurateRip returned [EA246F54] (AR v2)
No tracks could be verified as accurateYou may have a different pressing from the one(s) in the database
End of status report
==== Log checksum B060A8F9D7C8DB15819C161A309AEC673C2114247648964A0D6B2BC7EC314DA8 ====

Лог создания рипа: CD3

Exact Audio Copy V1.0 beta 3 from 29. August 2011
EAC extraction logfile from 17. January 2015, 1:36
Fumiko Shiraga, Henrik Wiese, Peter Clemente, Tibor Benyi / Mozart arranged by Hummel - CD3
Used drive : HL-DT-STDVDRAM GU70N Adapter: 0 ID: 0
Read mode : SecureUtilize accurate stream : YesDefeat audio cache : YesMake use of C2 pointers : No
Read offset correction : 48Overread into Lead-In and Lead-Out : NoFill up missing offset samples with silence : YesDelete leading and trailing silent blocks : NoNull samples used in CRC calculations : YesUsed interface : Native Win32 interface for Win NT & 2000
Used output format : User Defined EncoderSelected bitrate : 128 kBit/sQuality : HighAdd ID3 tag : NoCommand line compressor : C:\Program Files (x86)\Exact Audio Copy\Flac\flac.exeAdditional command line options : -V -8 -T "Date=%year%" -T "Genre=%genre%" %source%
TOC of the extracted CD
Track | Start | Length | Start sector | End sector --------------------------------------------------------- 1 | 0:00.00 | 13:03.57 | 0 | 58781 2 | 13:03.57 | 6:26.22 | 58782 | 87753 3 | 19:30.04 | 10:16.16 | 87754 | 133969 4 | 29:46.20 | 15:24.46 | 133970 | 203315 5 | 45:10.66 | 10:26.18 | 203316 | 250283 6 | 55:37.09 | 13:12.44 | 250284 | 309727
Range status and errors
Selected range
Filename C:\temp\BIS-CD-9043 - Mozart arranged by Hummel - 7 Piano Concertos; Symphony No.40\CD3\Mozart arranged by Hummel - CD3.wav
Peak level 97.2 % Extraction speed 2.3 X Range quality 100.0 % Test CRC 523681EE Copy CRC 523681EE Copy OK
No errors occurred
AccurateRip summary
Track 1 cannot be verified as accurate (confidence 2) [56FE3002], AccurateRip returned [5264065F] (AR v2)Track 2 cannot be verified as accurate (confidence 2) [3CE977DF], AccurateRip returned [5A3422E3] (AR v2)Track 3 cannot be verified as accurate (confidence 2) [E72903FF], AccurateRip returned [C2588C97] (AR v2)Track 4 cannot be verified as accurate (confidence 2) [F290866B], AccurateRip returned [126FDE37] (AR v2)Track 5 cannot be verified as accurate (confidence 2) [5FD77DAA], AccurateRip returned [F0EB4EAA] (AR v2)Track 6 cannot be verified as accurate (confidence 2) [EA8B4762], AccurateRip returned [2BB5CD0A] (AR v2)
No tracks could be verified as accurateYou may have a different pressing from the one(s) in the database
End of status report
==== Log checksum 746E0D5E9CE0606F09F8D055F2ED540E3EEAB8B59829D380B37A488AF4F84BBC ====

Лог создания рипа: CD4

Exact Audio Copy V1.0 beta 3 from 29. August 2011
EAC extraction logfile from 17. January 2015, 2:05
Fumiko Shiraga, Henrik Wiese, Peter Clemente, Tibor Benyi / Mozart arranged by Hummel - CD4
Used drive : HL-DT-STDVDRAM GU70N Adapter: 0 ID: 0
Read mode : SecureUtilize accurate stream : YesDefeat audio cache : YesMake use of C2 pointers : No
Read offset correction : 48Overread into Lead-In and Lead-Out : NoFill up missing offset samples with silence : YesDelete leading and trailing silent blocks : NoNull samples used in CRC calculations : YesUsed interface : Native Win32 interface for Win NT & 2000
Used output format : User Defined EncoderSelected bitrate : 128 kBit/sQuality : HighAdd ID3 tag : NoCommand line compressor : C:\Program Files (x86)\Exact Audio Copy\Flac\flac.exeAdditional command line options : -V -8 -T "Date=%year%" -T "Genre=%genre%" %source%
TOC of the extracted CD
Track | Start | Length | Start sector | End sector --------------------------------------------------------- 1 | 0:00.00 | 13:37.62 | 0 | 61336 2 | 13:37.62 | 9:52.71 | 61337 | 105807 3 | 23:30.58 | 9:30.59 | 105808 | 148616 4 | 33:01.42 | 7:33.05 | 148617 | 182596 5 | 40:34.47 | 10:35.30 | 182597 | 230251 6 | 51:10.02 | 3:34.64 | 230252 | 246365 7 | 54:44.66 | 7:11.62 | 246366 | 278752
Range status and errors
Selected range
Filename C:\temp\BIS-CD-9043 - Mozart arranged by Hummel - 7 Piano Concertos; Symphony No.40\CD4\Mozart arranged by Hummel - CD4.wav
Peak level 97.9 % Extraction speed 5.2 X Range quality 100.0 % Test CRC 10BA6C9D Copy CRC 10BA6C9D Copy OK
No errors occurred
AccurateRip summary
Track 1 cannot be verified as accurate (confidence 3) [669AFBEB], AccurateRip returned [35E57863] (AR v2)Track 2 cannot be verified as accurate (confidence 3) [1635F657], AccurateRip returned [AA07C8AA] (AR v2)Track 3 cannot be verified as accurate (confidence 3) [1C02EF9A], AccurateRip returned [3F43238A] (AR v2)Track 4 cannot be verified as accurate (confidence 3) [602D4502], AccurateRip returned [9B330D0C] (AR v2)Track 5 cannot be verified as accurate (confidence 3) [60497D0C], AccurateRip returned [1371C796] (AR v2)Track 6 cannot be verified as accurate (confidence 3) [855D6850], AccurateRip returned [677FED80] (AR v2)Track 7 cannot be verified as accurate (confidence 3) [EAEFFCC7], AccurateRip returned [3603312B] (AR v2)
No tracks could be verified as accurateYou may have a different pressing from the one(s) in the database
End of status report
==== Log checksum C973BA5EAA010279CB6BAB627D1CAB1B9037E6206084A063FC3AACDC68AC57B2 ====



Показать сообщения:    

Текущее время: 09-Дек 20:27

Часовой пояс: UTC + 3


Вы не можете начинать темы
Вы не можете отвечать на сообщения
Вы не можете редактировать свои сообщения
Вы не можете удалять свои сообщения
Вы не можете голосовать в опросах
Вы не можете прикреплять файлы к сообщениям
Вы не можете скачивать файлы