(Classical) Johannes Brahms - String Quintets - Takacs Quartet, Lawrence Power - 2014, FLAC (image+.cue) lossless


 

[Цитировать]

Johannes Brahms - String Quintets - Takács Quartet, Lawrence Power
Жанр: Classical
Страна-производитель диска: UK
Год издания диска: 2014
Издатель (лейбл): Hyperion
Номер по каталогу: CDA67900
Дата записи: 2013
Аудиокодек: FLAC
Тип рипа: image+.cue
Битрейт аудио: lossless
Продолжительность: 56:58
Источник: собственный рип
Наличие сканов в содержимом раздачи: да
Треклист:
Johannes Brahms (1833-1897)
[1]-[3] String Quintet No.1 in F major, Op.88
[4]-[7] String Quintet No.2 in G major, Op.111
Исполнители:
Takács Quartet
Edward Dusinberre violin I
Károly Schranz violin II
Geraldine Walther viola
András Fejér cello
with Lawrence Power viola

Лог создания рипа

Exact Audio Copy V1.0 beta 3 from 29. August 2011
EAC extraction logfile from 20. September 2014, 1:26
Lawrence Power, Takacs Quartet / Brahms - String Quintets
Used drive : HL-DT-STDVDRAM GU70N Adapter: 0 ID: 0
Read mode : SecureUtilize accurate stream : YesDefeat audio cache : YesMake use of C2 pointers : No
Read offset correction : 48Overread into Lead-In and Lead-Out : NoFill up missing offset samples with silence : YesDelete leading and trailing silent blocks : NoNull samples used in CRC calculations : YesUsed interface : Native Win32 interface for Win NT & 2000
Used output format : User Defined EncoderSelected bitrate : 128 kBit/sQuality : HighAdd ID3 tag : NoCommand line compressor : C:\Program Files (x86)\Exact Audio Copy\Flac\flac.exeAdditional command line options : -V -8 -T "Date=%year%" -T "Genre=%genre%" %source%
TOC of the extracted CD
Track | Start | Length | Start sector | End sector --------------------------------------------------------- 1 | 0:00.00 | 10:44.19 | 0 | 48318 2 | 10:44.19 | 10:59.39 | 48319 | 97782 3 | 21:43.58 | 5:03.11 | 97783 | 120518 4 | 26:46.69 | 12:47.68 | 120519 | 178111 5 | 39:34.62 | 6:34.00 | 178112 | 207661 6 | 46:08.62 | 5:43.20 | 207662 | 233406 7 | 51:52.07 | 5:04.17 | 233407 | 256223
Range status and errors
Selected range
Filename C:\temp\CDA67900 - Brahms - String Quintets (Takacs Quartet, Power - HYPERION)\CD\Brahms - String Quintets.wav
Peak level 97.7 % Extraction speed 4.9 X Range quality 100.0 % Test CRC 740B457D Copy CRC 740B457D Copy OK
No errors occurred
AccurateRip summary
Track 1 not present in databaseTrack 2 not present in databaseTrack 3 not present in databaseTrack 4 not present in databaseTrack 5 not present in databaseTrack 6 not present in databaseTrack 7 not present in database
None of the tracks are present in the AccurateRip database
End of status report
==== Log checksum 7773FF9550DF76C7EBC9908D67D0CEEEFE095490E7B6390B69C7D1035706509D ====



Показать сообщения:    

Текущее время: 08-Дек 14:57

Часовой пояс: UTC + 3


Вы не можете начинать темы
Вы не можете отвечать на сообщения
Вы не можете редактировать свои сообщения
Вы не можете удалять свои сообщения
Вы не можете голосовать в опросах
Вы не можете прикреплять файлы к сообщениям
Вы не можете скачивать файлы