(Baroque ouverture et danses) Marin Marais - Semele : Ouverture et Danses (Montreal Baroque, Wieland Kuijken) - 2007, FLAC (image+.cue) lossless


 

[Цитировать]

Marin Marais - Semele : Ouverture et Danses

Жанр: Baroque ouverture et danses
Страна-производитель диска: Made in Canada
Год издания диска: 2007
Издатель (лейбл): ATMA Classique
Номер по каталогу: SACD2 2527
Дата записи: 2006
Аудиокодек: FLAC
Тип рипа: image+.cue
Битрейт аудио: lossless
Продолжительность: 54'18
Источник: релизер
сайт-источник/ник/другое: Ice
Наличие сканов в содержимом раздачи: да
Треклист:

скрытый текст

01. Prologue : Ouverture [0:04:08.18]
02. Marche des Aegipans et des Menades [0:01:22.37]
03. Air pour les Menades [0:00:50.05]
04. Deuxieme air pour les mesmes [0:00:44.48]
05. Troisieme air pour les Menades [0:01:19.80]
06. Quatrieme air poue les mesmes [0:00:54.05]
07. Entree des Aegipans et Menades en fureur [0:01:32.54]
08. Symphonie tendre [0:02:03.56]
09. Act I : Marche [0:01:25.34]
10. Premier air pour les guerriers [0:01:54.18]
11. Deuxieme air pour les mesmes [0:01:25.54]
12. Troisieme air [0:01:21.02]
13. Prelude pour Adraste [0:00:54.02]
14. Act II : Ritournelle [0:03:21.06]
15. Ritournelle [0:02:07.84]
16. Chaconne [0:07:39.58]
17. Act III : Prelude [0:00:54.80]
18. Air pour les Furies [0:01:32.92]
19. Deuxieme air pour les Furies [0:01:10.57]
20. Act IV : : Ritournelle [0:02:01.74]
21. Marche pour les bergers [0:00:41.80]
22. Menuet [0:00:52.88]
23. Deuxieme menuet [0:00:44.54]
24. Musette [0:00:39.38]
25. Passepieds [0:03:11.98]
26. Act V : Prelude [0:00:52.82]
27. Air pour les Thebains et Thebaines [0:02:07.26]
28. Deuxieme air pour les mesmes [0:01:46.70]
29. Troisieme air pour les Thebains et Thebaines [0:01:58.36]
30. Tremblement de terre [0:02:37.90]
Исполнители:

скрытый текст

Marin Marais (1656-1728)
Semele : Ouverture et Danses
Montreal Baroque
Wieland Kuijken дирижёр
Recording : Eglise Saint-Augustin, de Mirabel (Quebec) 26, 27, and 28 June, 2006

Лог создания рипа

Exact Audio Copy V0.99 prebeta 5 from 4. May 2009
EAC extraction logfile from 17. June 2011, 19:32
Montreal Baroque - W. Kuijken / Marin Marais : Semele - Ouverture et Danses
Used drive : TSSTcorpCDDVDW SE-S224Q Adapter: 2 ID: 0
Read mode : SecureUtilize accurate stream : YesDefeat audio cache : YesMake use of C2 pointers : No
Read offset correction : 6Overread into Lead-In and Lead-Out : NoFill up missing offset samples with silence : YesDelete leading and trailing silent blocks : NoNull samples used in CRC calculations : YesUsed interface : Installed external ASPI interface
Used output format : Monkey's Audio Lossless Encoder v3.99 DLLSample format : Normal Lossless Compression
TOC of the extracted CD
Track | Start | Length | Start sector | End sector --------------------------------------------------------- 1 | 0:00.00 | 4:08.14 | 0 | 18613 2 | 4:08.14 | 1:22.28 | 18614 | 24791 3 | 5:30.42 | 0:50.04 | 24792 | 28545 4 | 6:20.46 | 0:44.36 | 28546 | 31881 5 | 7:05.07 | 1:19.60 | 31882 | 37866 6 | 8:24.67 | 0:54.04 | 37867 | 41920 7 | 9:18.71 | 1:32.41 | 41921 | 48861 8 | 10:51.37 | 2:03.42 | 48862 | 58128 9 | 12:55.04 | 1:25.26 | 58129 | 64529 10 | 14:20.30 | 1:54.14 | 64530 | 73093 11 | 16:14.44 | 1:25.41 | 73094 | 79509 12 | 17:40.10 | 1:21.02 | 79510 | 85586 13 | 19:01.12 | 0:54.02 | 85587 | 89638 14 | 19:55.14 | 3:21.05 | 89639 | 104718 15 | 23:16.19 | 2:07.63 | 104719 | 114306 16 | 25:24.07 | 7:39.44 | 114307 | 148775 17 | 33:03.51 | 0:54.60 | 148776 | 152885 18 | 33:58.36 | 1:32.69 | 152886 | 159854 19 | 35:31.30 | 1:10.43 | 159855 | 165147 20 | 36:41.73 | 2:01.56 | 165148 | 174278 21 | 38:43.54 | 0:41.60 | 174279 | 177413 22 | 39:25.39 | 0:52.66 | 177414 | 181379 23 | 40:18.30 | 0:44.41 | 181380 | 184720 24 | 41:02.71 | 0:39.29 | 184721 | 187674 25 | 41:42.25 | 3:11.74 | 187675 | 202073 26 | 44:54.24 | 0:52.62 | 202074 | 206035 27 | 45:47.11 | 2:07.20 | 206036 | 215580 28 | 47:54.31 | 1:46.53 | 215581 | 223583 29 | 49:41.09 | 1:58.27 | 223584 | 232460 30 | 51:39.36 | 2:37.68 | 232461 | 244303
Range status and errors
Selected range
Filename E:\ICE\MM.S,OeD.MB.WK\Montreal Baroque - W. Kuijken - Marin Marais Semele - Ouverture et Danses.ape
Peak level 66.8 % Range quality 100.0 % Test CRC 91D19FBD Copy CRC 91D19FBD Copy OK
No errors occurred
AccurateRip summary
Track 1 accurately ripped (confidence 13) [98671D2B]Track 2 accurately ripped (confidence 14) [37DB4681]Track 3 accurately ripped (confidence 14) [00F6DF71]Track 4 accurately ripped (confidence 14) [488D5494]Track 5 accurately ripped (confidence 14) [38E817ED]Track 6 accurately ripped (confidence 14) [00AEF27C]Track 7 accurately ripped (confidence 14) [31B684D9]Track 8 accurately ripped (confidence 14) [7C5D1E34]Track 9 accurately ripped (confidence 14) [AD09B24D]Track 10 accurately ripped (confidence 13) [64457291]Track 11 accurately ripped (confidence 14) [FCE95AA2]Track 12 accurately ripped (confidence 14) [3C1AD4B5]Track 13 accurately ripped (confidence 14) [7DC15077]Track 14 accurately ripped (confidence 14) [6FE9D787]Track 15 accurately ripped (confidence 14) [87B8FCBE]Track 16 accurately ripped (confidence 14) [81A2FA01]Track 17 accurately ripped (confidence 14) [D6C922AD]Track 18 accurately ripped (confidence 14) [C14450E8]Track 19 accurately ripped (confidence 14) [9E292DD0]Track 20 accurately ripped (confidence 14) [CFAF9F62]Track 21 accurately ripped (confidence 14) [7932850E]Track 22 accurately ripped (confidence 14) [D1A2AE62]Track 23 accurately ripped (confidence 14) [F115C087]Track 24 accurately ripped (confidence 14) [526CD47A]Track 25 accurately ripped (confidence 14) [83445BC7]Track 26 accurately ripped (confidence 14) [A24D3117]Track 27 accurately ripped (confidence 14) [B70EAC54]Track 28 accurately ripped (confidence 14) [9492CD1D]Track 29 accurately ripped (confidence 14) [02593C46]Track 30 accurately ripped (confidence 14) [76B67A72]
All tracks accurately ripped
End of status report

Содержание индексной карты (.CUE)

REM GENRE ClassicalREM DATE 2006REM DISCID 9F0CB91EREM COMMENT "ExactAudioCopy v0.99pb5"PERFORMER "Montreal Baroque - W. Kuijken"TITLE "Marin Marais : Semele - Ouverture et Danses"FILE "Montreal Baroque - W. Kuijken - Marin Marais Semele - Ouverture et Danses.ape" WAVE TRACK 01 AUDIO TITLE "Prologue : Ouverture" PERFORMER "Montreal Baroque - W. Kuijken" INDEX 01 00:00:00 TRACK 02 AUDIO TITLE "Marche des Aegipans et des Menades" PERFORMER "Montreal Baroque - W. Kuijken" INDEX 01 04:08:14 TRACK 03 AUDIO TITLE "Air pour les Menades" PERFORMER "Montreal Baroque - W. Kuijken" INDEX 01 05:30:42 TRACK 04 AUDIO TITLE "Deuxieme air pour les mesmes" PERFORMER "Montreal Baroque - W. Kuijken" INDEX 01 06:20:46 TRACK 05 AUDIO TITLE "Troisieme air pour les Menades" PERFORMER "Montreal Baroque - W. Kuijken" INDEX 01 07:05:07 TRACK 06 AUDIO TITLE "Quatrieme air poue les mesmes" PERFORMER "Montreal Baroque - W. Kuijken" INDEX 01 08:24:67 TRACK 07 AUDIO TITLE "Entree des Aegipans et Menades en fureur" PERFORMER "Montreal Baroque - W. Kuijken" INDEX 01 09:18:71 TRACK 08 AUDIO TITLE "Symphonie tendre" PERFORMER "Montreal Baroque - W. Kuijken" INDEX 01 10:51:37 TRACK 09 AUDIO TITLE "Act I : Marche" PERFORMER "Montreal Baroque - W. Kuijken" INDEX 00 12:49:57 INDEX 01 12:55:04 TRACK 10 AUDIO TITLE "Premier air pour les guerriers" PERFORMER "Montreal Baroque - W. Kuijken" INDEX 01 14:20:30 TRACK 11 AUDIO TITLE "Deuxieme air pour les mesmes" PERFORMER "Montreal Baroque - W. Kuijken" INDEX 01 16:14:44 TRACK 12 AUDIO TITLE "Troisieme air" PERFORMER "Montreal Baroque - W. Kuijken" INDEX 01 17:40:10 TRACK 13 AUDIO TITLE "Prelude pour Adraste" PERFORMER "Montreal Baroque - W. Kuijken" INDEX 01 19:01:12 TRACK 14 AUDIO TITLE "Act II : Ritournelle" PERFORMER "Montreal Baroque - W. Kuijken" INDEX 00 19:50:16 INDEX 01 19:55:14 TRACK 15 AUDIO TITLE "Ritournelle" PERFORMER "Montreal Baroque - W. Kuijken" INDEX 01 23:16:19 TRACK 16 AUDIO TITLE "Chaconne" PERFORMER "Montreal Baroque - W. Kuijken" INDEX 01 25:24:07 TRACK 17 AUDIO TITLE "Act III : Prelude" PERFORMER "Montreal Baroque - W. Kuijken" INDEX 00 32:58:28 INDEX 01 33:03:51 TRACK 18 AUDIO TITLE "Air pour les Furies" PERFORMER "Montreal Baroque - W. Kuijken" INDEX 01 33:58:36 TRACK 19 AUDIO TITLE "Deuxieme air pour les Furies" PERFORMER "Montreal Baroque - W. Kuijken" INDEX 01 35:31:30 TRACK 20 AUDIO TITLE "Act IV : : Ritournelle" PERFORMER "Montreal Baroque - W. Kuijken" INDEX 00 36:38:00 INDEX 01 36:41:73 TRACK 21 AUDIO TITLE "Marche pour les bergers" PERFORMER "Montreal Baroque - W. Kuijken" INDEX 01 38:43:54 TRACK 22 AUDIO TITLE "Menuet" PERFORMER "Montreal Baroque - W. Kuijken" INDEX 01 39:25:39 TRACK 23 AUDIO TITLE "Deuxieme menuet" PERFORMER "Montreal Baroque - W. Kuijken" INDEX 01 40:18:30 TRACK 24 AUDIO TITLE "Musette" PERFORMER "Montreal Baroque - W. Kuijken" INDEX 01 41:02:71 TRACK 25 AUDIO TITLE "Passepieds" PERFORMER "Montreal Baroque - W. Kuijken" INDEX 01 41:42:25 TRACK 26 AUDIO TITLE "Act V : Prelude" PERFORMER "Montreal Baroque - W. Kuijken" INDEX 00 44:50:29 INDEX 01 44:54:24 TRACK 27 AUDIO TITLE "Air pour les Thebains et Thebaines" PERFORMER "Montreal Baroque - W. Kuijken" INDEX 01 45:47:11 TRACK 28 AUDIO TITLE "Deuxieme air pour les mesmes" PERFORMER "Montreal Baroque - W. Kuijken" INDEX 01 47:54:31 TRACK 29 AUDIO TITLE "Troisieme air pour les Thebains et Thebaines" PERFORMER "Montreal Baroque - W. Kuijken" INDEX 01 49:41:09 TRACK 30 AUDIO TITLE "Tremblement de terre" PERFORMER "Montreal Baroque - W. Kuijken" INDEX 01 51:39:36



Показать сообщения:    

Текущее время: 05-Дек 01:26

Часовой пояс: UTC + 3


Вы не можете начинать темы
Вы не можете отвечать на сообщения
Вы не можете редактировать свои сообщения
Вы не можете удалять свои сообщения
Вы не можете голосовать в опросах
Вы не можете прикреплять файлы к сообщениям
Вы не можете скачивать файлы