(Classical) Joseph Haydn - Les Sept dernieres Paroles de Notre Redempteur sur la Croix,Hob.XX.1 (Jordi Savall) - 1999, FLAC (tracks+.cue) lossless


 

[Цитировать]

Joseph Haydn - Les Sept dernieres Paroles de Notre Redempteur sur la Croix,Hob.XX.1 (Jordi Savall)
Жанр: Classical
Страна-производитель диска: France
Год издания диска: 1999
Издатель (лейбл): Astree
Номер по каталогу: ES 9935
Дата записи: 1990
Аудиокодек: FLAC
Тип рипа: tracks+.cue
Битрейт аудио: lossless
Продолжительность: 72:20
Источник: собственный рип
сайт-источник/ник/другое: Из личной коллекции
Наличие сканов в содержимом раздачи: да
Треклист:
01. Introduzione
02. Pater, dimitte illis, quia nesciunt, quid faciunt
03. Sonata I
04. Hodie mecum eris in Paradiso
05. Sonata II
06. Mulier, ecce filius tuus
07. Sonata III
08. Deus meus, Deus meus, utquid dereliquisti me?
09. Sonata IV
10. Sitio
11. Sonata V
12. Consummatum est
13. Sonata VI
14. In manus tuas, Domine, commendo spiritum meum
15. Sonata VII
16. Il Terremoto
Исполнители:
Rafael Taibo, е вангелист
Le Concert des Nations
Jordi Savall

Лог создания рипа

Exact Audio Copy V0.99 prebeta 5 from 4. May 2009
EAC extraction logfile from 13. May 2011, 12:54
Jordi Savall, Le Concert des Nations / Haydn - Les Sept dernieres Paroles de Notre Redempteur sur la Croix Hob.XX.1
Used drive : PLEXTOR DVDR PX-800A Adapter: 1 ID: 0
Read mode : SecureUtilize accurate stream : YesDefeat audio cache : YesMake use of C2 pointers : No
Read offset correction : 48Overread into Lead-In and Lead-Out : NoFill up missing offset samples with silence : YesDelete leading and trailing silent blocks : NoNull samples used in CRC calculations : NoUsed interface : Native Win32 interface for Win NT & 2000Gap handling : Appended to previous track
Used output format : User Defined EncoderSelected bitrate : 1024 kBit/sQuality : HighAdd ID3 tag : NoCommand line compressor : C:\Program Files\Exact Audio Copy\FLAC\FLAC.EXEAdditional command line options : -8 -V -T "ARTIST=%a" -T "TITLE=%t" -T "ALBUM=%g" -T "DATE=%y" -T "TRACKNUMBER=%n" -T "GENRE=%m" -T "COMMENT=%e" %s -o %d
TOC of the extracted CD
Track | Start | Length | Start sector | End sector --------------------------------------------------------- 1 | 0:00.32 | 6:28.08 | 32 | 29139 2 | 6:28.40 | 0:46.70 | 29140 | 32659 3 | 7:15.35 | 6:24.10 | 32660 | 61469 4 | 13:39.45 | 1:12.10 | 61470 | 66879 5 | 14:51.55 | 7:00.55 | 66880 | 98434 6 | 21:52.35 | 0:34.55 | 98435 | 101039 7 | 22:27.15 | 9:23.52 | 101040 | 143316 8 | 31:50.67 | 0:38.58 | 143317 | 146224 9 | 32:29.50 | 10:19.22 | 146225 | 192671 10 | 42:48.72 | 0:18.05 | 192672 | 194026 11 | 43:07.02 | 9:32.60 | 194027 | 236986 12 | 52:39.62 | 0:34.33 | 236987 | 239569 13 | 53:14.20 | 8:28.67 | 239570 | 277736 14 | 61:43.12 | 0:37.23 | 277737 | 280534 15 | 62:20.35 | 8:15.62 | 280535 | 317721 16 | 70:36.22 | 1:57.58 | 317722 | 326554
Track 1
Filename E:\1111\Haydn.Les_Sept_dernieres_Paroles_de_Notre_Redempteur_sur_la_Croix,Hob.XX.1-Jordi_Savall\01 - L'introduzione. Maestoso ed adagio.wav
Pre-gap length 0:00:02.32
Peak level 82.3 % Track quality 100.0 % Test CRC 175AB618 Copy CRC 175AB618 Accurately ripped (confidence 9) [B49FABA8] Copy OK
Track 2
Filename E:\1111\Haydn.Les_Sept_dernieres_Paroles_de_Notre_Redempteur_sur_la_Croix,Hob.XX.1-Jordi_Savall\02 - Pater, dimitte illis - non enim sciunt quid faciunt.wav
Pre-gap length 0:00:06.68
Peak level 35.6 % Track quality 100.0 % Test CRC 1490EDB4 Copy CRC 1490EDB4 Accurately ripped (confidence 9) [559E08C9] Copy OK
Track 3
Filename E:\1111\Haydn.Les_Sept_dernieres_Paroles_de_Notre_Redempteur_sur_la_Croix,Hob.XX.1-Jordi_Savall\03 - Sonata 1. Largo.wav
Peak level 64.0 % Track quality 100.0 % Test CRC 07A7C4F1 Copy CRC 07A7C4F1 Accurately ripped (confidence 9) [8292B06A] Copy OK
Track 4
Filename E:\1111\Haydn.Les_Sept_dernieres_Paroles_de_Notre_Redempteur_sur_la_Croix,Hob.XX.1-Jordi_Savall\04 - Hodie mecum eris in Paradiso.wav
Pre-gap length 0:00:03.40
Peak level 16.3 % Track quality 100.0 % Test CRC 3DA6B7F5 Copy CRC 3DA6B7F5 Accurately ripped (confidence 9) [A5809B7E] Copy OK
Track 5
Filename E:\1111\Haydn.Les_Sept_dernieres_Paroles_de_Notre_Redempteur_sur_la_Croix,Hob.XX.1-Jordi_Savall\05 - Sonata 2. Grave e Cantabile.wav
Peak level 71.1 % Track quality 99.9 % Test CRC FA7FB498 Copy CRC FA7FB498 Accurately ripped (confidence 9) [7926C9B4] Copy OK
Track 6
Filename E:\1111\Haydn.Les_Sept_dernieres_Paroles_de_Notre_Redempteur_sur_la_Croix,Hob.XX.1-Jordi_Savall\06 - Mulier ecce filius tuus.wav
Pre-gap length 0:00:03.08
Peak level 17.9 % Track quality 100.0 % Test CRC E1D98EA8 Copy CRC E1D98EA8 Accurately ripped (confidence 9) [25DC15FE] Copy OK
Track 7
Filename E:\1111\Haydn.Les_Sept_dernieres_Paroles_de_Notre_Redempteur_sur_la_Croix,Hob.XX.1-Jordi_Savall\07 - Sonata 3. Grave.wav
Pre-gap length 0:00:01.00
Peak level 92.4 % Track quality 100.0 % Test CRC 2DFFC9E8 Copy CRC 2DFFC9E8 Accurately ripped (confidence 9) [25922CCA] Copy OK
Track 8
Filename E:\1111\Haydn.Les_Sept_dernieres_Paroles_de_Notre_Redempteur_sur_la_Croix,Hob.XX.1-Jordi_Savall\08 - Deus meus, Deus meus, ut quid dereliquistime .wav
Pre-gap length 0:00:03.02
Peak level 70.4 % Track quality 100.0 % Test CRC 3995BA45 Copy CRC 3995BA45 Accurately ripped (confidence 9) [5C874CCB] Copy OK
Track 9
Filename E:\1111\Haydn.Les_Sept_dernieres_Paroles_de_Notre_Redempteur_sur_la_Croix,Hob.XX.1-Jordi_Savall\09 - Sonata 4. Largo.wav
Pre-gap length 0:00:01.35
Peak level 79.0 % Track quality 99.9 % Test CRC 74B921AD Copy CRC 74B921AD Accurately ripped (confidence 9) [325ADED8] Copy OK
Track 10
Filename E:\1111\Haydn.Les_Sept_dernieres_Paroles_de_Notre_Redempteur_sur_la_Croix,Hob.XX.1-Jordi_Savall\10 - Sitio.wav
Pre-gap length 0:00:04.50
Peak level 24.4 % Track quality 100.0 % Test CRC 14E46484 Copy CRC 14E46484 Accurately ripped (confidence 9) [BD7C811B] Copy OK
Track 11
Filename E:\1111\Haydn.Les_Sept_dernieres_Paroles_de_Notre_Redempteur_sur_la_Croix,Hob.XX.1-Jordi_Savall\11 - Sonata 5. Adagio.wav
Pre-gap length 0:00:01.30
Peak level 97.0 % Track quality 99.9 % Test CRC 20FC9496 Copy CRC 20FC9496 Accurately ripped (confidence 9) [281F8703] Copy OK
Track 12
Filename E:\1111\Haydn.Les_Sept_dernieres_Paroles_de_Notre_Redempteur_sur_la_Croix,Hob.XX.1-Jordi_Savall\12 - Consummatum est.wav
Pre-gap length 0:00:03.32
Peak level 31.4 % Track quality 100.0 % Test CRC 59BBCC7C Copy CRC 59BBCC7C Accurately ripped (confidence 9) [FB4BE7C8] Copy OK
Track 13
Filename E:\1111\Haydn.Les_Sept_dernieres_Paroles_de_Notre_Redempteur_sur_la_Croix,Hob.XX.1-Jordi_Savall\13 - Sonata 6. Lento.wav
Pre-gap length 0:00:00.35
Peak level 79.9 % Track quality 100.0 % Test CRC 3393A998 Copy CRC 3393A998 Accurately ripped (confidence 9) [F11038D4] Copy OK
Track 14
Filename E:\1111\Haydn.Les_Sept_dernieres_Paroles_de_Notre_Redempteur_sur_la_Croix,Hob.XX.1-Jordi_Savall\14 - Pater, in manus tuas comendo spiritum meum.wav
Pre-gap length 0:00:04.20
Peak level 31.8 % Track quality 100.0 % Test CRC 2C5997AE Copy CRC 2C5997AE Accurately ripped (confidence 9) [DAA597B9] Copy OK
Track 15
Filename E:\1111\Haydn.Les_Sept_dernieres_Paroles_de_Notre_Redempteur_sur_la_Croix,Hob.XX.1-Jordi_Savall\15 - Sonata 7. Largo.wav
Peak level 68.8 % Track quality 100.0 % Test CRC 3266C9BA Copy CRC 3266C9BA Accurately ripped (confidence 9) [C56F2533] Copy OK
Track 16
Filename E:\1111\Haydn.Les_Sept_dernieres_Paroles_de_Notre_Redempteur_sur_la_Croix,Hob.XX.1-Jordi_Savall\16 - Il Terremoto. Presto con tutta la forza.wav
Pre-gap length 0:00:00.15
Peak level 100.0 % Track quality 100.0 % Test CRC 35EB30BC Copy CRC 35EB30BC Accurately ripped (confidence 9) [4B7E8D67] Copy OK
All tracks accurately ripped
No errors occurred
End of status report

Содержание индексной карты (.CUE)

REM GENRE ClassicalREM DATE 1991REM DISCID E6110210REM COMMENT "ExactAudioCopy v0.99pb5"PERFORMER "Jordi Savall, Le Concert des Nations"TITLE "Haydn - Les Sept dernieres Paroles de Notre Redempteur sur la Croix Hob.XX.1"FILE "01 - L'introduzione. Maestoso ed adagio.wav" WAVE TRACK 01 AUDIO TITLE "L'introduzione. Maestoso ed adagio" PERFORMER "Jordi Savall, Le Concert des Nations" PREGAP 00:00:32 INDEX 01 00:00:00 TRACK 02 AUDIO TITLE "Pater, dimitte illis - non enim sciunt quid faciunt" PERFORMER "Jordi Savall, Le Concert des Nations" INDEX 00 06:21:15FILE "02 - Pater, dimitte illis - non enim sciunt quid faciunt.wav" WAVE INDEX 01 00:00:00FILE "03 - Sonata 1. Largo.wav" WAVE TRACK 03 AUDIO TITLE "Sonata 1. Largo" PERFORMER "Jordi Savall, Le Concert des Nations" INDEX 01 00:00:00 TRACK 04 AUDIO TITLE "Hodie mecum eris in Paradiso" PERFORMER "Jordi Savall, Le Concert des Nations" INDEX 00 06:20:45FILE "04 - Hodie mecum eris in Paradiso.wav" WAVE INDEX 01 00:00:00FILE "05 - Sonata 2. Grave e Cantabile.wav" WAVE TRACK 05 AUDIO TITLE "Sonata 2. Grave e Cantabile" PERFORMER "Jordi Savall, Le Concert des Nations" INDEX 01 00:00:00 TRACK 06 AUDIO TITLE "Mulier ecce filius tuus" PERFORMER "Jordi Savall, Le Concert des Nations" INDEX 00 06:57:47FILE "06 - Mulier ecce filius tuus.wav" WAVE INDEX 01 00:00:00 TRACK 07 AUDIO TITLE "Sonata 3. Grave" PERFORMER "Jordi Savall, Le Concert des Nations" INDEX 00 00:33:55FILE "07 - Sonata 3. Grave.wav" WAVE INDEX 01 00:00:00 TRACK 08 AUDIO TITLE "Deus meus, Deus meus, ut quid dereliquistime?" PERFORMER "Jordi Savall, Le Concert des Nations" INDEX 00 09:20:50FILE "08 - Deus meus, Deus meus, ut quid dereliquistime .wav" WAVE INDEX 01 00:00:00 TRACK 09 AUDIO TITLE "Sonata 4. Largo" PERFORMER "Jordi Savall, Le Concert des Nations" INDEX 00 00:37:23FILE "09 - Sonata 4. Largo.wav" WAVE INDEX 01 00:00:00 TRACK 10 AUDIO TITLE "Sitio" PERFORMER "Jordi Savall, Le Concert des Nations" INDEX 00 10:14:47FILE "10 - Sitio.wav" WAVE INDEX 01 00:00:00 TRACK 11 AUDIO TITLE "Sonata 5. Adagio" PERFORMER "Jordi Savall, Le Concert des Nations" INDEX 00 00:16:50FILE "11 - Sonata 5. Adagio.wav" WAVE INDEX 01 00:00:00 TRACK 12 AUDIO TITLE "Consummatum est" PERFORMER "Jordi Savall, Le Concert des Nations" INDEX 00 09:29:28FILE "12 - Consummatum est.wav" WAVE INDEX 01 00:00:00 TRACK 13 AUDIO TITLE "Sonata 6. Lento" PERFORMER "Jordi Savall, Le Concert des Nations" INDEX 00 00:33:73FILE "13 - Sonata 6. Lento.wav" WAVE INDEX 01 00:00:00 TRACK 14 AUDIO TITLE "Pater, in manus tuas comendo spiritum meum" PERFORMER "Jordi Savall, Le Concert des Nations" INDEX 00 08:24:47FILE "14 - Pater, in manus tuas comendo spiritum meum.wav" WAVE INDEX 01 00:00:00FILE "15 - Sonata 7. Largo.wav" WAVE TRACK 15 AUDIO TITLE "Sonata 7. Largo" PERFORMER "Jordi Savall, Le Concert des Nations" INDEX 01 00:00:00 TRACK 16 AUDIO TITLE "Il Terremoto. Presto con tutta la forza" PERFORMER "Jordi Savall, Le Concert des Nations" INDEX 00 08:15:47FILE "16 - Il Terremoto. Presto con tutta la forza.wav" WAVE INDEX 01 00:00:00



Показать сообщения:    

Текущее время: 06-Дек 13:09

Часовой пояс: UTC + 3


Вы не можете начинать темы
Вы не можете отвечать на сообщения
Вы не можете редактировать свои сообщения
Вы не можете удалять свои сообщения
Вы не можете голосовать в опросах
Вы не можете прикреплять файлы к сообщениям
Вы не можете скачивать файлы