(Classical) Bach - ...per la viola da gamba... - BWV 1011/995, BWV 1025, BWV 1029 - Hille Perl, Lee Santana, Andrew Lawrence-King, Veronika Skuplik, Barbara Messmer - 1999, FLAC (image+.cue) lossless


 

[Цитировать]

Bach - ...per la viola da gamba... - BWV 1011/995, BWV 1025, BWV 1029 - Hille Perl, Lee Santana, Andrew Lawrence-King, Veronika Skuplik, Barbara Messmer
Жанр: Classical
Страна-производитель диска: Germany
Год издания диска: 1999
Издатель (лейбл): Deutsche Harmonia Mundi
Номер по каталогу: DHM 77515
Дата записи: 1999
Аудиокодек: FLAC
Тип рипа: image+.cue
Битрейт аудио: lossless
Продолжительность: 65:17
Источник: собственный рип
Наличие сканов в содержимом раздачи: да
Треклист:
Johann Sebastian Bach (1685-1750)
[1]-[6] Suite per la viola da gamba in D minor, BWV 1011/995
[7]-[12] Trio in A major, BWV 1025
[13]-[15] Sonata in G minor, BWV 1029
Исполнители:
Hille Perl viola da gamba
Lee Santana baroque lute ([7]-[15])
Andrew Lawrence-King double harp ([13]-[15])
Veronika Skuplik violin ([13]-[15])
Barbara Messmer viola da gamba ([13]-[15])

Лог создания рипа

Exact Audio Copy V1.0 beta 3 from 29. August 2011
EAC extraction logfile from 17. September 2014, 8:37
Hille Perl / Bach - ...per la viola da gamba...
Used drive : HL-DT-STDVDRAM GU70N Adapter: 0 ID: 0
Read mode : SecureUtilize accurate stream : YesDefeat audio cache : YesMake use of C2 pointers : No
Read offset correction : 48Overread into Lead-In and Lead-Out : NoFill up missing offset samples with silence : YesDelete leading and trailing silent blocks : NoNull samples used in CRC calculations : YesUsed interface : Native Win32 interface for Win NT & 2000
Used output format : User Defined EncoderSelected bitrate : 128 kBit/sQuality : HighAdd ID3 tag : NoCommand line compressor : C:\Program Files (x86)\Exact Audio Copy\Flac\flac.exeAdditional command line options : -V -8 -T "Date=%year%" -T "Genre=%genre%" %source%
TOC of the extracted CD
Track | Start | Length | Start sector | End sector --------------------------------------------------------- 1 | 0:00.00 | 5:43.26 | 0 | 25750 2 | 5:43.26 | 4:48.38 | 25751 | 47388 3 | 10:31.64 | 2:32.10 | 47389 | 58798 4 | 13:03.74 | 2:06.67 | 58799 | 68315 5 | 15:10.66 | 5:04.09 | 68316 | 91124 6 | 20:15.00 | 2:15.41 | 91125 | 101290 7 | 22:30.41 | 3:26.21 | 101291 | 116761 8 | 25:56.62 | 5:26.47 | 116762 | 141258 9 | 31:23.34 | 3:40.28 | 141259 | 157786 10 | 35:03.62 | 6:48.25 | 157787 | 188411 11 | 41:52.12 | 4:46.35 | 188412 | 209896 12 | 46:38.47 | 3:56.48 | 209897 | 227644 13 | 50:35.20 | 5:33.50 | 227645 | 252669 14 | 56:08.70 | 5:00.16 | 252670 | 275185 15 | 61:09.11 | 4:12.60 | 275186 | 294145
Range status and errors
Selected range
Filename C:\temp\DHM-05472-77515 Bach - per la viola da gamba (Hille Perl)\Bach - per la viola da gamba.wav
Peak level 64.7 % Extraction speed 2.2 X Range quality 99.9 % Test CRC DB8BB72F Copy CRC DB8BB72F Copy OK
No errors occurred
AccurateRip summary
Track 1 accurately ripped (confidence 9) [823DFDAC] (AR v2)Track 2 accurately ripped (confidence 9) [A91FF1D2] (AR v2)Track 3 accurately ripped (confidence 9) [77AD3158] (AR v2)Track 4 accurately ripped (confidence 9) [38344960] (AR v2)Track 5 accurately ripped (confidence 9) [7405CACF] (AR v2)Track 6 accurately ripped (confidence 9) [ED6EA814] (AR v2)Track 7 accurately ripped (confidence 9) [A7EEB05D] (AR v2)Track 8 accurately ripped (confidence 9) [E5448A6E] (AR v2)Track 9 accurately ripped (confidence 9) [AF017FAC] (AR v2)Track 10 accurately ripped (confidence 8) [F1E107E9] (AR v2)Track 11 accurately ripped (confidence 9) [21DA4606] (AR v2)Track 12 accurately ripped (confidence 8) [5411E89A] (AR v2)Track 13 accurately ripped (confidence 9) [6E056813] (AR v2)Track 14 accurately ripped (confidence 9) [D7EB692C] (AR v2)Track 15 accurately ripped (confidence 9) [BD0D4BFA] (AR v2)
All tracks accurately ripped
End of status report
==== Log checksum D92C9B69D7A0658E61D3807225EB61CEFD28E7BA4E21FC79FD961D57CA649834 ====



Показать сообщения:    

Текущее время: 05-Дек 13:33

Часовой пояс: UTC + 3


Вы не можете начинать темы
Вы не можете отвечать на сообщения
Вы не можете редактировать свои сообщения
Вы не можете удалять свои сообщения
Вы не можете голосовать в опросах
Вы не можете прикреплять файлы к сообщениям
Вы не можете скачивать файлы