(Classical, period) Вангаль – Сонаты для фортепиано с кларнетом; фортепианные пьесы / Vanhal – Complete works (sonatas) for clarinet & piano; Six English dances; Sonatina (Ensemble DeNOTE: Jane Booth, John Irving) - 2013, FLAC (image+.cue) lossle


 

[Цитировать]

Вангаль – Сонаты для фортепиано с кларнетом; фортепианные пьесы / Vanhal – Complete works (sonatas) for clarinet & piano; Six English dances; Piano Sonatina (Ensemble DeNOTE: Jane Booth, John Irving)
Жанр: Classical, period
Страна-производитель диска: Англия?
Год издания диска: 2013
Издатель (лейбл): sfz music
Номер по каталогу: SFZM 0413
Дата записи: 31 января — 3 февраля 2012 г., Танбридж-Уэллс.
Аудиокодек: FLAC
Тип рипа: image+.cue
Битрейт аудио: lossless
Продолжительность: 01:08:04
Источник: odeonmusic
Наличие сканов в содержимом раздачи: да
Треклист:
Иоганн Баптист Вангаль (Ян Крштитель Ваньхал; 1739 — 1813)
Соната для клавира с обязательным кларнетом № 1 B-dur, Weinmann XIa:26 (опубл. 1801).
01. I. Allegro moderato [07:29].
02. II. Adagio cantabile [03:33].
03. III. Rondo. Allegretto [04:36].
Шесть английских танцев для клавира, Weinmann XVIII:8 и 9.
04. № 1 D-dur [10:13].
(05.) № 2 G-dur.
(06.) № 3 C-dur.
(07.) № 4 A-dur.
(08.) № 5 F-dur.
(09.) № 6 B-dur.
Соната для клавира с обязательным кларнетом № 2 C-dur, Weinmann XIa:27 (опубл. 1803).
05. I. Moderato [07:44].
06. II. Adagio [03:28].
07. III. Rondo. Allegretto [04:37].
Двенадцать сонатин для клавира, Weinmann XIII:55 (опубл. 1803): Тетрадь вторая. № 10 Es-dur.
08. Cadenza. — Andante cantabile. — Allegretto [06:44].
Соната для клавира с обязательной скрипкой (кларнетом) [Соната для клавира с кларнетом № 3] Es-dur, Weinmann XIa:68 [28?] (опубл. 1810).
09. I. Allegro vivace [08:51].
10. II. Poco adagio [05:15].
11. III. Rondo. Allegretto [05:28].
Исполнители:
Ensemble DeNOTE:
Jane Booth (кларнет, копии с инструментов конца XVIII века),
John Irving (fortepiano, копия с инструмента конца XVIII века).

Лог создания рипа

Exact Audio Copy V1.0 beta 3 from 29. August 2011
EAC extraction logfile from 2. September 2014, 15:55
Jane Booth / Vanhal - Clarinet Sonatas - Jane Booth
Used drive : TSSTcorpCDDVDW SH-222BB Adapter: 2 ID: 1
Read mode : SecureUtilize accurate stream : YesDefeat audio cache : YesMake use of C2 pointers : No
Read offset correction : 6Overread into Lead-In and Lead-Out : NoFill up missing offset samples with silence : YesDelete leading and trailing silent blocks : NoNull samples used in CRC calculations : YesUsed interface : Native Win32 interface for Win NT & 2000
Used output format : User Defined EncoderSelected bitrate : 896 kBit/sQuality : HighAdd ID3 tag : NoCommand line compressor : C:\Program Files\Exact Audio Copy\FLAC\FLAC.EXEAdditional command line options : -8 -V -T "TITLE=%title%" -T "ARTIST=%artist%" -T "ALBUMARTIST=%albumartist%" -T "ALBUM=%albumtitle%" -T "DATE=%year%" -T "TRACKNUMBER=%tracknr%" -T "TRACKTOTAL=%numtracks%" -T "GENRE=%genre%" -T "COMMENT=%comment%" -T "PERFORMER=%albuminterpret%" -T "COMPOSER=%composer%" %source% -o %dest%
TOC of the extracted CD
Track | Start | Length | Start sector | End sector --------------------------------------------------------- 1 | 0:00.00 | 7:29.10 | 0 | 33684 2 | 7:29.10 | 3:33.23 | 33685 | 49682 3 | 11:02.33 | 4:36.73 | 49683 | 70455 4 | 15:39.31 | 10:13.39 | 70456 | 116469 5 | 25:52.70 | 7:44.45 | 116470 | 151314 6 | 33:37.40 | 3:28.46 | 151315 | 166960 7 | 37:06.11 | 4:37.26 | 166961 | 187761 8 | 41:43.37 | 6:44.51 | 187762 | 218112 9 | 48:28.13 | 8:51.11 | 218113 | 257948 10 | 57:19.24 | 5:15.64 | 257949 | 281637 11 | 62:35.13 | 5:28.37 | 281638 | 306274
Range status and errors
Selected range
Filename G:\Ripped general\[7809] Vanhal – Clarinet Sonatas – Jane Booth\Vanhal - Clarinet Sonatas - Jane Booth.wav
Peak level 100.0 % Extraction speed 6.9 X Range quality 99.9 % Test CRC 4FFB0133 Copy CRC 4FFB0133 Copy OK
No errors occurred
AccurateRip summary
Track 1 accurately ripped (confidence 1) [46FF4466] (AR v2)Track 2 accurately ripped (confidence 1) [20DD6A01] (AR v2)Track 3 accurately ripped (confidence 1) [C58DFA65] (AR v2)Track 4 accurately ripped (confidence 1) [11B7B517] (AR v2)Track 5 accurately ripped (confidence 1) [88687293] (AR v2)Track 6 accurately ripped (confidence 1) [077C3631] (AR v2)Track 7 accurately ripped (confidence 1) [6AC20BE9] (AR v2)Track 8 accurately ripped (confidence 1) [7758DBC4] (AR v2)Track 9 accurately ripped (confidence 1) [42402C80] (AR v2)Track 10 accurately ripped (confidence 1) [CB89CB26] (AR v2)Track 11 accurately ripped (confidence 1) [E7C8ED95] (AR v2)
All tracks accurately ripped
End of status report
==== Log checksum 6F70FFF4E0EAC532AA7F53A6F919098E5E6B40FC1AAF0B9C9F850A79A08AC75C ====

Содержание индексной карты (.CUE)

REM GENRE "Chamber Music"REM DATE 2013REM DISCID 8D0FF30BREM COMMENT "ExactAudioCopy v1.0b3"CATALOG 5065001476235PERFORMER "Jane Booth & John Irving"TITLE "Vanhal – Clarinet Sonatas – Jane Booth & John Irving"FILE "Vanhal – Clarinet Sonatas – Jane Booth.flac" WAVE TRACK 01 AUDIO TITLE "Clarinet Sonata No. 1 in B flat major (1801) - I. Allegro moderato" PERFORMER "Jane Booth & John Irving" ISRC GBRPQ1300370 INDEX 01 00:00:00 TRACK 02 AUDIO TITLE "Clarinet Sonata No. 1 in B flat major (1801) - II. Adagio cantabile" PERFORMER "Jane Booth & John Irving" ISRC GBRPQ1300371 INDEX 01 07:29:10 TRACK 03 AUDIO TITLE "Clarinet Sonata No. 1 in B flat major (1801) - III. Rondo. Allegretto" PERFORMER "Jane Booth & John Irving" ISRC GBRPQ1300372 INDEX 01 11:02:33 TRACK 04 AUDIO TITLE "Six English Dances for solo piano" PERFORMER "Jane Booth & John Irving" ISRC GBRPQ1300373 INDEX 01 15:39:31 TRACK 05 AUDIO TITLE "Clarinet Sonata No. 2 in C major (1803) - I. Moderato" PERFORMER "Jane Booth & John Irving" ISRC GBRPQ1300374 INDEX 01 25:52:70 TRACK 06 AUDIO TITLE "Clarinet Sonata No. 2 in C major (1803) - II. Adagio" PERFORMER "Jane Booth & John Irving" ISRC GBRPQ1300375 INDEX 01 33:37:40 TRACK 07 AUDIO TITLE "Clarinet Sonata No. 2 in C major (1803) - III. Rondo. Allegretto" PERFORMER "Jane Booth & John Irving" ISRC GBRPQ1300376 INDEX 01 37:06:11 TRACK 08 AUDIO TITLE "Sonatina No. 10 in E flat major for solo piano (1802)" PERFORMER "Jane Booth & John Irving" ISRC GBRPQ1300377 INDEX 01 41:43:37 TRACK 09 AUDIO TITLE "Clarinet Sonata No. 3 in E flat major (1810) - I. Allegro vivace" PERFORMER "Jane Booth & John Irving" ISRC GBRPQ1300378 INDEX 01 48:28:13 TRACK 10 AUDIO TITLE "Clarinet Sonata No. 3 in E flat major (1810) - II. Poco adagio" PERFORMER "Jane Booth & John Irving" ISRC GBRPQ1300379 INDEX 01 57:19:24 TRACK 11 AUDIO TITLE "Clarinet Sonata No. 3 in E flat major (1810) - III. Rondo. Allegretto" PERFORMER "Jane Booth & John Irving" ISRC GBRPQ1300379 INDEX 01 62:35:13

Вариант индексной карты (.CUE) с разделением Английских танцев на отдельные треки

REM GENRE "Chamber Music"REM DATE 2013REM DISCID 8D0FF30BREM COMMENT "ExactAudioCopy v1.0b3"CATALOG 5065001476235PERFORMER "Jane Booth & John Irving"TITLE "Vanhal – Clarinet Sonatas – Jane Booth & John Irving"FILE "Vanhal – Clarinet Sonatas – Jane Booth.flac" WAVE TRACK 01 AUDIO TITLE "Clarinet Sonata No. 1 in B flat major (1801) - I. Allegro moderato" PERFORMER "Jane Booth & John Irving" ISRC GBRPQ1300370 INDEX 00 00:00:00 INDEX 01 00:02:33 TRACK 02 AUDIO TITLE "Clarinet Sonata No. 1 in B flat major (1801) - II. Adagio cantabile" PERFORMER "Jane Booth & John Irving" ISRC GBRPQ1300371 INDEX 01 07:29:10 TRACK 03 AUDIO TITLE "Clarinet Sonata No. 1 in B flat major (1801) - III. Rondo. Allegretto" PERFORMER "Jane Booth & John Irving" ISRC GBRPQ1300372 INDEX 01 11:02:33 TRACK 04 AUDIO TITLE "Six English Dances for solo piano - No. 1 in D major" PERFORMER "Jane Booth & John Irving" ISRC GBRPQ1300373 INDEX 01 15:39:31 TRACK 05 AUDIO TITLE "Six English Dances for solo piano - No. 2 in G major" PERFORMER "Jane Booth & John Irving" ISRC GBRPQ1300374 INDEX 00 17:21:17 INDEX 01 17:23:53 TRACK 06 AUDIO TITLE "Six English Dances for solo piano - No. 3 in C major" PERFORMER "Jane Booth & John Irving" ISRC GBRPQ1300375 INDEX 00 18:58:48 INDEX 01 18:59:61 TRACK 07 AUDIO TITLE "Six English Dances for solo piano - No. 4 in A major" PERFORMER "Jane Booth & John Irving" ISRC GBRPQ1300376 INDEX 01 20:41:11 TRACK 08 AUDIO TITLE "Six English Dances for solo piano - No. 5 in F major" PERFORMER "Jane Booth & John Irving" ISRC GBRPQ1300377 INDEX 00 22:24:21 INDEX 01 22:25:43 TRACK 09 AUDIO TITLE "Six English Dances for solo piano - No. 6 in B flat major" PERFORMER "Jane Booth & John Irving" ISRC GBRPQ1300378 INDEX 00 24:14:10 INDEX 01 24:14:48 TRACK 10 AUDIO TITLE "Clarinet Sonata No. 2 in C major (1803) - I. Moderato" PERFORMER "Jane Booth & John Irving" ISRC GBRPQ1300379 INDEX 00 25:52:68 INDEX 01 25:53:34 TRACK 11 AUDIO TITLE "Clarinet Sonata No. 2 in C major (1803) - II. Adagio" PERFORMER "Jane Booth & John Irving" ISRC GBRPQ1300379 INDEX 00 33:37:13 INDEX 01 33:38:19 TRACK 12 AUDIO TITLE "Clarinet Sonata No. 2 in C major (1803) - III. Rondo. Allegretto" PERFORMER "Jane Booth & John Irving" INDEX 01 37:06:11 TRACK 13 AUDIO TITLE "Sonatina No. 10 in E flat major for solo piano (1802)" PERFORMER "Jane Booth & John Irving" INDEX 01 41:43:37 TRACK 14 AUDIO TITLE "Clarinet Sonata No. 3 in E flat major (1810) - I. Allegro vivace" PERFORMER "Jane Booth & John Irving" INDEX 01 48:28:13 TRACK 15 AUDIO TITLE "Clarinet Sonata No. 3 in E flat major (1810) - II. Poco adagio" PERFORMER "Jane Booth & John Irving" INDEX 01 57:19:24 TRACK 16 AUDIO TITLE "Clarinet Sonata No. 3 in E flat major (1810) - III. Rondo. Allegretto" PERFORMER "Jane Booth & John Irving" INDEX 01 62:35:13



Показать сообщения:    

Текущее время: 07-Дек 21:19

Часовой пояс: UTC + 3


Вы не можете начинать темы
Вы не можете отвечать на сообщения
Вы не можете редактировать свои сообщения
Вы не можете удалять свои сообщения
Вы не можете голосовать в опросах
Вы не можете прикреплять файлы к сообщениям
Вы не можете скачивать файлы