(Classical) Онсло – Все фортепианные трио [4 CDs] / Onslow – Complete piano trios (Trio Cascades: Thomas Palm, Katrina Schulz, Inka Ehlert) - 2007, 2008, 2011, FLAC (image+.cue) lossless


 

[Цитировать]

Онсло – Все фортепианные трио [4 CDs] / Onslow – Complete piano trios (Trio Cascades: Thomas Palm, Katrina Schulz, Inka Ehlert)
Жанр: Classical
Страна-производитель диска: Германия
Год издания диска: 2007, 2008, 2011
Издатель (лейбл): cpo
Номер по каталогу: 777 230-2; 777 231-2; 777 232-2
Дата записи: 2004 — 2005 гг., Майнерцхаген.
Аудиокодек: FLAC
Тип рипа: image+.cue
Битрейт аудио: lossless
Продолжительность: 00:55:45 + 00:57:50 + 01:14:24 + 01:15:25
Источник: odeonmusic
Наличие сканов в содержимом раздачи: да
Треклист:
Андре Жорж Луи Онсло (1784 — 1853).
Полное собрание фортепианных трио.
Cd 1.
01 — 04. Фортепианное трио № 5 Es-dur, op. 14 № 2 (опубл. 1818).
05 — 08. Фортепианное трио № 9 G-dur, op. 27 (1823/1824).
Cd 2.
01 — 04. Фортепианное трио № 10 f-moll, op. 83 (1851/1852).
05 — 08. Фортепианное трио № 2 C-dur, op. 3 № 2 (1807?).
Cd 3.
01 — 04. Фортепианное трио № 7 d-moll, op. 20 (1822).
05 — 08. Фортепианное трио № 1 A-dur [sic!], op. 3 № 1 (1807?).
09 — 12. Фортепианное трио № 4 e-moll, op. 14 № 1 (опубл. 1818).
Cd 4.
01 — 04. Фортепианное трио № 8 c-moll, op. 26 (1823/1824).
05 — 08. Фортепианное трио № 6 D-dur, op. 14 № 3 (опубл. 1818).
09 — 12. Фортепианное трио № 3 g-moll, op. 3 № 3 (1807?).

Подробный треклист (в хронологическом порядке).

Андре Жорж Луи Онсло (1784 — 1853).
Полное собрание фортепианных трио.-Три фортепианных трио, op. 3 (1807).
Фортепианное трио № 1 (1) A-dur [sic!].
III 5. I. Introduzione. Largo. — [03:23].
III 6. Allegro vivace [06:40].
III 7. II. Minuetto. — [Trio.] — [Minuetto da capo] [06:23].
III 8. III. Finale [07:15].
Фортепианное трио № 2 (2) C-dur.
II 5. I. Allegro moderato [09:11].
II 6. II. Andante non troppo lento [06:32].
II 7. III. Minuetto. — [Trio.] — [Minuetto da capo] [05:50].
II 8. IV. Finale [04:45].
Фортепианное трио № 3 (3) g-moll.
IV 9. I. Vivace [06:43].
IV 10. II. Andante cantabile, quasi adagio [06:48].
IV 11. III. Minuetto. Presto non tanto. — Trio. — Minuetto da capo [05:11].
IV 12. IV. Finale. Allegro agitato [06:11].-Три фортепианных трио, op. 14 (опубл. 1818).
Фортепианное трио № 1 (4) e-moll.
III 9. I. Allegro espressivo [06:43].
III 10. II. Andante grazioso [05:26].
III 11. III. Minuetto. Presto. — [Trio.] — Minuetto da capo [02:33].
III 12. IV. Finale. Allegretto [07:11].
Фортепианное трио № 2 (5) Es-dur.
I 1. I. Allegro spirituoso [10:44].
I 2. II. Minuetto. Vivace. — [Trio.] — Minuetto da capo [04:06].
I 3. III. Andante con variazioni. [Тема.] Народная мелодия из овернских гор. — Вариация I. Più presto. — Вариация II. — Вариация III. — Вариация IV. Tempo di marcia. — Вариация V. Tempo I. — [Кода] [08:17].
I 4. IV. Finale. Allegro [05:27].
Фортепианное трио № 3 (6) D-dur.
IV 5. I. Allegro vivace assai [04:06].
IV 6. II. Andante non troppo lento [05:21].
IV 7. III. Minuetto. Allegro. — [Trio.] — Minuetto da capo [05:10].
IV 8. IV. Finale. Presto [05:07].-Фортепианное трио № 7 d-moll, op. 20 (1822).
III 1. I. Allegro energico [08:37].
III 2. II. Thema con variazioni. [Тема] Andante cantabile non troppo lento. — Вариация I. — Вариация II. — Вариация III. — Вариация IV. Più lento e con molto espressione. — Вариация V. Tempo I. — [Кода] [10:22].
III 3. III. Menuetto. Presto. — Maggiore. — Menuetto da capo [02:34].
III 4. IV. Finale. Allegretto [07:09].
Фортепианное трио № 8 c-moll, op. 26 (1823/1824).
IV 1. I. Allegro espressivo [11:01].
IV 2. II. Adagio [08:15].
IV 3. III. Minuetto. Presto. — [Maggiore.] — [Minore] [05:26].
IV 4. IV. Finale. Allegro agitato [05:59].
Фортепианное трио № 9 G-dur, op. 27 (1823/1824).
I 5. I. Allegro grazioso [07:46].
I 6. II. Andante cantabile. — Energico. — [Tempo I] [06:43].
I 7. III. Minuetto. Allegro espressivo e non tanto presto. — Trio. — Minuetto da capo [05:47].
I 8. IV. Finale. Allegro [06:50].-Фортепианное трио № 10 f-moll, op. 83 (1851/1852).
II 1. I. Allegro patetico [12:23].
II 2. II. Adagio grandioso [09:09].
II 3. III. Scherzo [03:59].
II 4. IV. Finale. Allegro animato [05:56].
Исполнители:
Trio Cascades:
Thomas Palm (фортепиано),
Katrina Schulz (скрипка),
Inka Ehlert (виолончель).-

Логи создания рипаCD 1.

Exact Audio Copy V1.0 beta 3 from 29. August 2011
EAC extraction logfile from 22. September 2013, 18:13
Trio Cascades / George Onslow - Piano Trios - Trio Cascades (Vol.1)
Used drive : TSSTcorpCDDVDW SH-222BB Adapter: 2 ID: 1
Read mode : SecureUtilize accurate stream : YesDefeat audio cache : YesMake use of C2 pointers : No
Read offset correction : 6Overread into Lead-In and Lead-Out : NoFill up missing offset samples with silence : YesDelete leading and trailing silent blocks : NoNull samples used in CRC calculations : YesUsed interface : Native Win32 interface for Win NT & 2000
Used output format : User Defined EncoderSelected bitrate : 1024 kBit/sQuality : HighAdd ID3 tag : NoCommand line compressor : C:\Program Files\Exact Audio Copy\Flac\flac.exeAdditional command line options : -8 -V -T "TITLE=%title%" -T "ARTIST=%artist%" -T "ALBUMARTIST=%albumartist%" -T "ALBUM=%albumtitle%" -T "DATE=%year%" -T "TRACKNUMBER=%tracknr%" -T "TRACKTOTAL=%numtracks%" -T "GENRE=%genre%" -T "COMMENT=%comment%" -T "PERFORMER=%albuminterpret%" -T "COMPOSER=%composer%" %source% -o %dest%
TOC of the extracted CD
Track | Start | Length | Start sector | End sector --------------------------------------------------------- 1 | 0:00.00 | 10:44.51 | 0 | 48350 2 | 10:44.51 | 4:06.00 | 48351 | 66800 3 | 14:50.51 | 8:17.44 | 66801 | 104119 4 | 23:08.20 | 5:27.48 | 104120 | 128692 5 | 28:35.68 | 7:46.09 | 128693 | 163651 6 | 36:22.02 | 6:43.35 | 163652 | 193911 7 | 43:05.37 | 5:47.67 | 193912 | 220003 8 | 48:53.29 | 6:50.27 | 220004 | 250780
Range status and errors
Selected range
Filename G:\Ripped general\[8529] George Onslow – Piano Trios – Trio Cascades (Vol.1)\George Onslow - Piano Trios - Trio Cascades (Vol.1).wav
Peak level 81.8 % Extraction speed 5.7 X Range quality 100.0 % Test CRC D1946834 Copy CRC D1946834 Copy OK
No errors occurred
AccurateRip summary
Track 1 accurately ripped (confidence 3) [745B1675] (AR v2)Track 2 accurately ripped (confidence 3) [14055FA7] (AR v2)Track 3 accurately ripped (confidence 3) [F4A052B7] (AR v2)Track 4 accurately ripped (confidence 3) [B9001823] (AR v2)Track 5 accurately ripped (confidence 3) [B6492D6E] (AR v2)Track 6 accurately ripped (confidence 3) [3BE801CB] (AR v2)Track 7 accurately ripped (confidence 3) [169CABE9] (AR v2)Track 8 accurately ripped (confidence 3) [C9595EC9] (AR v2)
All tracks accurately ripped
End of status report

CD 2.

Exact Audio Copy V1.0 beta 3 from 29. August 2011
EAC extraction logfile from 22. September 2013, 18:37
Trio Cascades / George Onslow - Piano Trios - Trio Cascades (Vol.2)
Used drive : TSSTcorpCDDVDW SH-222BB Adapter: 2 ID: 1
Read mode : SecureUtilize accurate stream : YesDefeat audio cache : YesMake use of C2 pointers : No
Read offset correction : 6Overread into Lead-In and Lead-Out : NoFill up missing offset samples with silence : YesDelete leading and trailing silent blocks : NoNull samples used in CRC calculations : YesUsed interface : Native Win32 interface for Win NT & 2000
Used output format : User Defined EncoderSelected bitrate : 1024 kBit/sQuality : HighAdd ID3 tag : NoCommand line compressor : C:\Program Files\Exact Audio Copy\Flac\flac.exeAdditional command line options : -8 -V -T "TITLE=%title%" -T "ARTIST=%artist%" -T "ALBUMARTIST=%albumartist%" -T "ALBUM=%albumtitle%" -T "DATE=%year%" -T "TRACKNUMBER=%tracknr%" -T "TRACKTOTAL=%numtracks%" -T "GENRE=%genre%" -T "COMMENT=%comment%" -T "PERFORMER=%albuminterpret%" -T "COMPOSER=%composer%" %source% -o %dest%
TOC of the extracted CD
Track | Start | Length | Start sector | End sector --------------------------------------------------------- 1 | 0:00.00 | 12:23.25 | 0 | 55749 2 | 12:23.25 | 9:09.46 | 55750 | 96970 3 | 21:32.71 | 3:59.32 | 96971 | 114927 4 | 25:32.28 | 5:56.15 | 114928 | 141642 5 | 31:28.43 | 9:11.18 | 141643 | 182985 6 | 40:39.61 | 6:32.45 | 182986 | 212430 7 | 47:12.31 | 5:50.14 | 212431 | 238694 8 | 53:02.45 | 4:45.69 | 238695 | 260138
Range status and errors
Selected range
Filename G:\Ripped general\[8528] George Onslow – Piano Trios – Trio Cascades (Vol.2)\George Onslow - Piano Trios - Trio Cascades (Vol.2).wav
Peak level 90.3 % Extraction speed 5.7 X Range quality 100.0 % Test CRC FB3F5F4E Copy CRC FB3F5F4E Copy OK
No errors occurred
AccurateRip summary
Track 1 accurately ripped (confidence 2) [3ED01E4E] (AR v2)Track 2 accurately ripped (confidence 2) [F7F4336F] (AR v2)Track 3 accurately ripped (confidence 2) [48C26857] (AR v2)Track 4 accurately ripped (confidence 2) [47449A9C] (AR v2)Track 5 accurately ripped (confidence 2) [3A768992] (AR v2)Track 6 accurately ripped (confidence 2) [A2669574] (AR v2)Track 7 accurately ripped (confidence 2) [B98C033D] (AR v2)Track 8 accurately ripped (confidence 2) [2B1B43BD] (AR v2)
All tracks accurately ripped
End of status report

CD 3.

Exact Audio Copy V1.0 beta 3 from 29. August 2011
EAC extraction logfile from 22. September 2013, 18:59
Trio Cascades / George Onslow - Piano Trios - Trio Cascades (Vol.3 & 4) (Disc 1)
Used drive : TSSTcorpCDDVDW SH-222BB Adapter: 2 ID: 1
Read mode : SecureUtilize accurate stream : YesDefeat audio cache : YesMake use of C2 pointers : No
Read offset correction : 6Overread into Lead-In and Lead-Out : NoFill up missing offset samples with silence : YesDelete leading and trailing silent blocks : NoNull samples used in CRC calculations : YesUsed interface : Native Win32 interface for Win NT & 2000
Used output format : User Defined EncoderSelected bitrate : 1024 kBit/sQuality : HighAdd ID3 tag : NoCommand line compressor : C:\Program Files\Exact Audio Copy\Flac\flac.exeAdditional command line options : -8 -V -T "TITLE=%title%" -T "ARTIST=%artist%" -T "ALBUMARTIST=%albumartist%" -T "ALBUM=%albumtitle%" -T "DATE=%year%" -T "TRACKNUMBER=%tracknr%" -T "TRACKTOTAL=%numtracks%" -T "GENRE=%genre%" -T "COMMENT=%comment%" -T "PERFORMER=%albuminterpret%" -T "COMPOSER=%composer%" %source% -o %dest%
TOC of the extracted CD
Track | Start | Length | Start sector | End sector --------------------------------------------------------- 1 | 0:00.00 | 8:37.17 | 0 | 38791 2 | 8:37.17 | 10:22.54 | 38792 | 85495 3 | 18:59.71 | 2:34.08 | 85496 | 97053 4 | 21:34.04 | 7:09.66 | 97054 | 129294 5 | 28:43.70 | 3:23.71 | 129295 | 144590 6 | 32:07.66 | 6:40.56 | 144591 | 174646 7 | 38:48.47 | 6:23.44 | 174647 | 203415 8 | 45:12.16 | 7:15.11 | 203416 | 236051 9 | 52:27.27 | 6:43.41 | 236052 | 266317 10 | 59:10.68 | 5:26.60 | 266318 | 290827 11 | 64:37.53 | 2:33.27 | 290828 | 302329 12 | 67:11.05 | 7:11.15 | 302330 | 334669
Range status and errors
Selected range
Filename G:\Ripped general\[8527] George Onslow – Piano Trios – Trio Cascades (Vol.3 & 4)\cd1\George Onslow - Piano Trios - Trio Cascades (Vol.3 & 4) (Disc 1).wav
Peak level 87.6 % Extraction speed 8.0 X Range quality 100.0 % Test CRC 6088B2B0 Copy CRC 6088B2B0 Copy OK
No errors occurred
AccurateRip summary
Track 1 accurately ripped (confidence 3) [84AB45F6] (AR v2)Track 2 accurately ripped (confidence 3) [BC79C69B] (AR v2)Track 3 accurately ripped (confidence 3) [BABCDB45] (AR v2)Track 4 accurately ripped (confidence 3) [D6530B54] (AR v2)Track 5 accurately ripped (confidence 3) [8667816B] (AR v2)Track 6 accurately ripped (confidence 3) [FEA94428] (AR v2)Track 7 accurately ripped (confidence 3) [67B77FE4] (AR v2)Track 8 accurately ripped (confidence 3) [4F5F9265] (AR v2)Track 9 accurately ripped (confidence 3) [0BB6AE17] (AR v2)Track 10 accurately ripped (confidence 3) [709A7CF5] (AR v2)Track 11 accurately ripped (confidence 3) [14FB14E0] (AR v2)Track 12 accurately ripped (confidence 3) [B4B1451B] (AR v2)
All tracks accurately ripped
End of status report

CD 4.

Exact Audio Copy V1.0 beta 3 from 29. August 2011
EAC extraction logfile from 22. September 2013, 19:46
Trio Cascades / George Onslow - Piano Trios - Trio Cascades (Vol.3 & 4) (Disc 2)
Used drive : TSSTcorpCDDVDW SH-222BB Adapter: 2 ID: 1
Read mode : SecureUtilize accurate stream : YesDefeat audio cache : YesMake use of C2 pointers : No
Read offset correction : 6Overread into Lead-In and Lead-Out : NoFill up missing offset samples with silence : YesDelete leading and trailing silent blocks : NoNull samples used in CRC calculations : YesUsed interface : Native Win32 interface for Win NT & 2000
Used output format : User Defined EncoderSelected bitrate : 1024 kBit/sQuality : HighAdd ID3 tag : NoCommand line compressor : C:\Program Files\Exact Audio Copy\Flac\flac.exeAdditional command line options : -8 -V -T "TITLE=%title%" -T "ARTIST=%artist%" -T "ALBUMARTIST=%albumartist%" -T "ALBUM=%albumtitle%" -T "DATE=%year%" -T "TRACKNUMBER=%tracknr%" -T "TRACKTOTAL=%numtracks%" -T "GENRE=%genre%" -T "COMMENT=%comment%" -T "PERFORMER=%albuminterpret%" -T "COMPOSER=%composer%" %source% -o %dest%
TOC of the extracted CD
Track | Start | Length | Start sector | End sector --------------------------------------------------------- 1 | 0:00.00 | 11:01.63 | 0 | 49637 2 | 11:01.63 | 8:15.22 | 49638 | 86784 3 | 19:17.10 | 5:26.41 | 86785 | 111275 4 | 24:43.51 | 5:59.23 | 111276 | 138223 5 | 30:42.74 | 4:06.19 | 138224 | 156692 6 | 34:49.18 | 5:21.16 | 156693 | 180783 7 | 40:10.34 | 5:10.48 | 180784 | 204081 8 | 45:21.07 | 5:07.52 | 204082 | 227158 9 | 50:28.59 | 6:43.04 | 227159 | 257387 10 | 57:11.63 | 6:48.69 | 257388 | 288056 11 | 64:00.57 | 5:11.53 | 288057 | 311434 12 | 69:12.35 | 6:11.10 | 311435 | 339269
Range status and errors
Selected range
Filename G:\Ripped general\[8527] George Onslow – Piano Trios – Trio Cascades (Vol.3 & 4)\cd2\George Onslow - Piano Trios - Trio Cascades (Vol.3 & 4) (Disc 2).wav
Peak level 81.3 % Extraction speed 8.0 X Range quality 100.0 % Test CRC 1FD57667 Copy CRC 1FD57667 Copy OK
No errors occurred
AccurateRip summary
Track 1 accurately ripped (confidence 3) [E918F8FF] (AR v2)Track 2 accurately ripped (confidence 3) [9841D789] (AR v2)Track 3 accurately ripped (confidence 3) [54790C91] (AR v2)Track 4 accurately ripped (confidence 3) [153F34B3] (AR v2)Track 5 accurately ripped (confidence 3) [6F1C2A49] (AR v2)Track 6 accurately ripped (confidence 3) [205E4D32] (AR v2)Track 7 accurately ripped (confidence 3) [B4E386B2] (AR v2)Track 8 accurately ripped (confidence 3) [4C9E681E] (AR v2)Track 9 accurately ripped (confidence 3) [45BE5824] (AR v2)Track 10 accurately ripped (confidence 3) [2E42FB8D] (AR v2)Track 11 accurately ripped (confidence 3) [2A5EFE82] (AR v2)Track 12 accurately ripped (confidence 3) [09E32097] (AR v2)
All tracks accurately ripped
End of status report

Содержание индексных карт (.CUE)CD 1.

REM GENRE ClassicalREM DISCID 7A0D0F08REM COMMENT "ExactAudioCopy v1.0b3"PERFORMER "Trio Cascades"TITLE "George Onslow – Piano Trios – Trio Cascades (Vol. 1)"FILE "George Onslow – Piano Trios – Trio Cascades (Vol. 1).flac" WAVE TRACK 01 AUDIO TITLE "Piano Trio No. 5 in E flat major, Op. 14 no. 2 - I. Allegro spirituoso" PERFORMER "Trio Cascades" FLAGS DCP INDEX 01 00:00:00 TRACK 02 AUDIO TITLE "Piano Trio No. 5 in E flat major, Op. 14 no. 2 - II. Minuetto. Vivace" PERFORMER "Trio Cascades" FLAGS DCP INDEX 01 10:44:51 TRACK 03 AUDIO TITLE "Piano Trio No. 5 in E flat major, Op. 14 no. 2 - III. Andante con variazioni. Air populaire des montagnes d'Auvergne" PERFORMER "Trio Cascades" FLAGS DCP INDEX 01 14:50:51 TRACK 04 AUDIO TITLE "Piano Trio No. 5 in E flat major, Op. 14 no. 2 - IV. Finale. Allegro" PERFORMER "Trio Cascades" FLAGS DCP INDEX 01 23:08:20 TRACK 05 AUDIO TITLE "Piano Trio No. 9 in G major, Op. 27 - I. Allegro grazioso" PERFORMER "Trio Cascades" FLAGS DCP INDEX 01 28:35:68 TRACK 06 AUDIO TITLE "Piano Trio No. 9 in G major, Op. 27 - II. Andante cantabile" PERFORMER "Trio Cascades" FLAGS DCP INDEX 01 36:22:02 TRACK 07 AUDIO TITLE "Piano Trio No. 9 in G major, Op. 27 - III. Minuetto. Allegro espressivo e non tanto presto" PERFORMER "Trio Cascades" FLAGS DCP INDEX 01 43:05:37 TRACK 08 AUDIO TITLE "Piano Trio No. 9 in G major, Op. 27 - IV. Finale. Allegro" PERFORMER "Trio Cascades" FLAGS DCP INDEX 01 48:53:29

CD 2.

REM GENRE ClassicalREM DISCID 6D0D8C08REM COMMENT "ExactAudioCopy v1.0b3"PERFORMER "Trio Cascades"TITLE "George Onslow – Piano Trios – Trio Cascades (Vol. 2)"FILE "George Onslow – Piano Trios – Trio Cascades (Vol. 2).flac" WAVE TRACK 01 AUDIO TITLE "Piano Trio No. 10 in F minor, Op. 83 - I. Allegro patetico" PERFORMER "Trio Cascades" FLAGS DCP INDEX 01 00:00:00 TRACK 02 AUDIO TITLE "Piano Trio No. 10 in F minor, Op. 83 - II. Adagio grandioso" PERFORMER "Trio Cascades" FLAGS DCP INDEX 01 12:23:25 TRACK 03 AUDIO TITLE "Piano Trio No. 10 in F minor, Op. 83 - III. Scherzo" PERFORMER "Trio Cascades" FLAGS DCP INDEX 01 21:32:71 TRACK 04 AUDIO TITLE "Piano Trio No. 10 in F minor, Op. 83 - IV. Finale. Allegro animato" PERFORMER "Trio Cascades" FLAGS DCP INDEX 01 25:32:28 TRACK 05 AUDIO TITLE "Piano Trio No. 2 in C major, Op. 3 no. 2 - I. Allegro moderato" PERFORMER "Trio Cascades" FLAGS DCP INDEX 01 31:28:43 TRACK 06 AUDIO TITLE "Piano Trio No. 2 in C major, Op. 3 no. 2 - II. Andante non troppo lento" PERFORMER "Trio Cascades" FLAGS DCP INDEX 01 40:39:61 TRACK 07 AUDIO TITLE "Piano Trio No. 2 in C major, Op. 3 no. 2 - III. Minuetto" PERFORMER "Trio Cascades" FLAGS DCP INDEX 01 47:12:31 TRACK 08 AUDIO TITLE "Piano Trio No. 2 in C major, Op. 3 no. 2 - IV. Finale" PERFORMER "Trio Cascades" FLAGS DCP INDEX 01 53:02:45

CD 3.

REM GENRE "Chamber Music"REM DATE 2011REM DISCID A9116E0CREM COMMENT "ExactAudioCopy v1.0b3"PERFORMER "Trio Cascades"TITLE "George Onslow – Piano Trios – Trio Cascades (Vol. 3)"FILE "George Onslow – Piano Trios – Trio Cascades (Vol. 3).flac" WAVE TRACK 01 AUDIO TITLE "Piano Trio No. 7 in D minor, Op. 20 - I. Allegro energico" PERFORMER "Trio Cascades" FLAGS DCP INDEX 01 00:00:00 TRACK 02 AUDIO TITLE "Piano Trio No. 7 in D minor, Op. 20 - II. Thema con variazioni. Andante cantabile non troppo lento" PERFORMER "Trio Cascades" FLAGS DCP INDEX 01 08:37:17 TRACK 03 AUDIO TITLE "Piano Trio No. 7 in D minor, Op. 20 - III. Menuetto. Presto" PERFORMER "Trio Cascades" FLAGS DCP INDEX 01 18:59:71 TRACK 04 AUDIO TITLE "Piano Trio No. 7 in D minor, Op. 20 - IV. Finale. Allegretto" PERFORMER "Trio Cascades" FLAGS DCP INDEX 01 21:34:04 TRACK 05 AUDIO TITLE "Piano Trio No. 1 in A major, Op. 3 no. 1 - I. Introduzione. Largo -" PERFORMER "Trio Cascades" FLAGS DCP INDEX 01 28:43:70 TRACK 06 AUDIO TITLE "Piano Trio No. 1 in A major, Op. 3 no. 1 - Allegro vivace" PERFORMER "Trio Cascades" FLAGS DCP INDEX 01 32:07:66 TRACK 07 AUDIO TITLE "Piano Trio No. 1 in A major, Op. 3 no. 1 - II. Minuetto" PERFORMER "Trio Cascades" FLAGS DCP INDEX 01 38:48:47 TRACK 08 AUDIO TITLE "Piano Trio No. 1 in A major, Op. 3 no. 1 - III. Finale" PERFORMER "Trio Cascades" FLAGS DCP INDEX 01 45:12:16 TRACK 09 AUDIO TITLE "Piano Trio No. 4 in E minor, Op. 14 no. 1 - I. Allegro espressivo" PERFORMER "Trio Cascades" FLAGS DCP INDEX 01 52:27:27 TRACK 10 AUDIO TITLE "Piano Trio No. 4 in E minor, Op. 14 no. 1 - II. Andante grazioso" PERFORMER "Trio Cascades" FLAGS DCP INDEX 01 59:10:68 TRACK 11 AUDIO TITLE "Piano Trio No. 4 in E minor, Op. 14 no. 1 - III. Minuetto. Presto" PERFORMER "Trio Cascades" FLAGS DCP INDEX 01 64:37:53 TRACK 12 AUDIO TITLE "Piano Trio No. 4 in E minor, Op. 14 no. 1 - IV. Finale. Allegretto" PERFORMER "Trio Cascades" FLAGS DCP INDEX 01 67:11:05

CD 4.

REM GENRE ClassicalREM DISCID 9911AB0CREM COMMENT "ExactAudioCopy v1.0b3"PERFORMER "Trio Cascades"TITLE "George Onslow – Piano Trios – Trio Cascades (Vol. 4)"FILE "George Onslow – Piano Trios – Trio Cascades (Vol. 4).flac" WAVE TRACK 01 AUDIO TITLE "Piano Trio No. 8 in C minor, Op. 26 - I. Allegro espressivo" PERFORMER "Trio Cascades" FLAGS DCP INDEX 01 00:00:00 TRACK 02 AUDIO TITLE "Piano Trio No. 8 in C minor, Op. 26 - II. Adagio" PERFORMER "Trio Cascades" FLAGS DCP INDEX 01 11:01:63 TRACK 03 AUDIO TITLE "Piano Trio No. 8 in C minor, Op. 26 - III. Minuetto. Presto" PERFORMER "Trio Cascades" FLAGS DCP INDEX 01 19:17:10 TRACK 04 AUDIO TITLE "Piano Trio No. 8 in C minor, Op. 26 - IV. Finale. Allegro agitato" PERFORMER "Trio Cascades" FLAGS DCP INDEX 01 24:43:51 TRACK 05 AUDIO TITLE "Piano Trio No. 6 in D major, Op. 14 no. 3 - I. Allegro vivace assai" PERFORMER "Trio Cascades" FLAGS DCP INDEX 01 30:42:74 TRACK 06 AUDIO TITLE "Piano Trio No. 6 in D major, Op. 14 no. 3 - II. Andante non troppo lento" PERFORMER "Trio Cascades" FLAGS DCP INDEX 01 34:49:18 TRACK 07 AUDIO TITLE "Piano Trio No. 6 in D major, Op. 14 no. 3 - III. Minuetto. Allegro" PERFORMER "Trio Cascades" FLAGS DCP INDEX 01 40:10:34 TRACK 08 AUDIO TITLE "Piano Trio No. 6 in D major, Op. 14 no. 3 - IV. Finale. Presto" PERFORMER "Trio Cascades" FLAGS DCP INDEX 01 45:21:07 TRACK 09 AUDIO TITLE "Piano Trio No. 3 in G minor, Op. 3 no. 3 - I. Vivace" PERFORMER "Trio Cascades" FLAGS DCP INDEX 01 50:28:59 TRACK 10 AUDIO TITLE "Piano Trio No. 3 in G minor, Op. 3 no. 3 - II. Andante cantabile, quasi adagio" PERFORMER "Trio Cascades" FLAGS DCP INDEX 01 57:11:63 TRACK 11 AUDIO TITLE "Piano Trio No. 3 in G minor, Op. 3 no. 3 - III. Minuetto. Presto non tanto" PERFORMER "Trio Cascades" FLAGS DCP INDEX 01 64:00:57 TRACK 12 AUDIO TITLE "Piano Trio No. 3 in G minor, Op. 3 no. 3 - IV. Finale. Allegro agitato" PERFORMER "Trio Cascades" FLAGS DCP INDEX 01 69:12:35

Варианты индексных карт (.CUE) с выставленными зазорамиCD 1.

REM GENRE ClassicalREM DISCID 7A0D0F08REM COMMENT "ExactAudioCopy v1.0b3"PERFORMER "Trio Cascades"TITLE "George Onslow – Piano Trios – Trio Cascades (Vol. 1)"FILE "George Onslow – Piano Trios – Trio Cascades (Vol. 1).flac" WAVE TRACK 01 AUDIO FLAGS DCP TITLE "Piano Trio No. 5 in E flat major, Op. 14 no. 2 - I. Allegro spirituoso" PERFORMER "Trio Cascades" INDEX 00 00:00:00 INDEX 01 00:03:54 TRACK 02 AUDIO FLAGS DCP TITLE "Piano Trio No. 5 in E flat major, Op. 14 no. 2 - II. Minuetto. Vivace" PERFORMER "Trio Cascades" INDEX 00 10:44:18 INDEX 01 10:45:73 TRACK 03 AUDIO FLAGS DCP TITLE "Piano Trio No. 5 in E flat major, Op. 14 no. 2 - III. Andante con variazioni. Air populaire des montagnes d'Auvergne" PERFORMER "Trio Cascades" INDEX 00 14:49:65 INDEX 01 14:52:00 TRACK 04 AUDIO FLAGS DCP TITLE "Piano Trio No. 5 in E flat major, Op. 14 no. 2 - IV. Finale. Allegro" PERFORMER "Trio Cascades" INDEX 01 23:09:52 TRACK 05 AUDIO FLAGS DCP TITLE "Piano Trio No. 9 in G major, Op. 27 - I. Allegro grazioso" PERFORMER "Trio Cascades" INDEX 00 28:30:44 INDEX 01 28:37:34 TRACK 06 AUDIO FLAGS DCP TITLE "Piano Trio No. 9 in G major, Op. 27 - II. Andante cantabile" PERFORMER "Trio Cascades" INDEX 01 36:23:07 TRACK 07 AUDIO FLAGS DCP TITLE "Piano Trio No. 9 in G major, Op. 27 - III. Minuetto. Allegro espressivo e non tanto presto" PERFORMER "Trio Cascades" INDEX 00 43:04:43 INDEX 01 43:06:64 TRACK 08 AUDIO FLAGS DCP TITLE "Piano Trio No. 9 in G major, Op. 27 - IV. Finale. Allegro" PERFORMER "Trio Cascades" INDEX 01 48:55:03 INDEX 02 55:41:59

CD 2.

REM GENRE ClassicalREM DISCID 6D0D8C08REM COMMENT "ExactAudioCopy v1.0b3"PERFORMER "Trio Cascades"TITLE "George Onslow – Piano Trios – Trio Cascades (Vol. 2)"FILE "George Onslow – Piano Trios – Trio Cascades (Vol. 2).flac" WAVE TRACK 01 AUDIO FLAGS DCP TITLE "Piano Trio No. 10 in F minor, Op. 83 - I. Allegro patetico" PERFORMER "Trio Cascades" INDEX 00 00:00:00 INDEX 01 00:05:20 TRACK 02 AUDIO FLAGS DCP TITLE "Piano Trio No. 10 in F minor, Op. 83 - II. Adagio grandioso" PERFORMER "Trio Cascades" INDEX 00 12:15:54 INDEX 01 12:24:63 TRACK 03 AUDIO FLAGS DCP TITLE "Piano Trio No. 10 in F minor, Op. 83 - III. Scherzo" PERFORMER "Trio Cascades" INDEX 00 21:26:60 INDEX 01 21:34:21 TRACK 04 AUDIO FLAGS DCP TITLE "Piano Trio No. 10 in F minor, Op. 83 - IV. Finale. Allegro animato" PERFORMER "Trio Cascades" INDEX 00 25:33:29 INDEX 01 25:34:19 TRACK 05 AUDIO FLAGS DCP TITLE "Piano Trio No. 2 in C major, Op. 3 no. 2 - I. Allegro moderato" PERFORMER "Trio Cascades" INDEX 00 31:19:44 INDEX 01 31:29:35 TRACK 06 AUDIO FLAGS DCP TITLE "Piano Trio No. 2 in C major, Op. 3 no. 2 - II. Andante non troppo lento" PERFORMER "Trio Cascades" INDEX 00 40:39:16 INDEX 01 40:41:18 TRACK 07 AUDIO FLAGS DCP TITLE "Piano Trio No. 2 in C major, Op. 3 no. 2 - III. Minuetto" PERFORMER "Trio Cascades" INDEX 00 47:13:06 INDEX 01 47:14:26 TRACK 08 AUDIO FLAGS DCP TITLE "Piano Trio No. 2 in C major, Op. 3 no. 2 - IV. Finale" PERFORMER "Trio Cascades" INDEX 00 53:02:24 INDEX 01 53:04:06 INDEX 02 57:47:04

CD 3.

REM GENRE "Chamber Music"REM DATE 2011REM DISCID A9116E0CREM COMMENT "ExactAudioCopy v1.0b3"PERFORMER "Trio Cascades"TITLE "George Onslow – Piano Trios – Trio Cascades (Vol. 3)"FILE "George Onslow – Piano Trios – Trio Cascades (Vol. 3).flac" WAVE TRACK 01 AUDIO FLAGS DCP TITLE "Piano Trio No. 7 in D minor, Op. 20 - I. Allegro energico" PERFORMER "Trio Cascades" INDEX 00 00:00:00 INDEX 01 00:05:39 TRACK 02 AUDIO FLAGS DCP TITLE "Piano Trio No. 7 in D minor, Op. 20 - II. Thema con variazioni. Andante cantabile non troppo lento" PERFORMER "Trio Cascades" INDEX 00 08:35:70 INDEX 01 08:38:39 TRACK 03 AUDIO FLAGS DCP TITLE "Piano Trio No. 7 in D minor, Op. 20 - III. Menuetto. Presto" PERFORMER "Trio Cascades" INDEX 00 18:59:69 INDEX 01 19:01:33 TRACK 04 AUDIO FLAGS DCP TITLE "Piano Trio No. 7 in D minor, Op. 20 - IV. Finale. Allegretto" PERFORMER "Trio Cascades" INDEX 00 21:33:69 INDEX 01 21:35:20 TRACK 05 AUDIO FLAGS DCP TITLE "Piano Trio No. 1 in A major, Op. 3 no. 1 - I. Introduzione. Largo -" PERFORMER "Trio Cascades" INDEX 00 28:36:69 INDEX 01 28:45:14 TRACK 06 AUDIO FLAGS DCP TITLE "Piano Trio No. 1 in A major, Op. 3 no. 1 - Allegro vivace" PERFORMER "Trio Cascades" INDEX 01 32:09:03 TRACK 07 AUDIO FLAGS DCP TITLE "Piano Trio No. 1 in A major, Op. 3 no. 1 - II. Minuetto" PERFORMER "Trio Cascades" INDEX 00 38:47:40 INDEX 01 38:49:30 TRACK 08 AUDIO FLAGS DCP TITLE "Piano Trio No. 1 in A major, Op. 3 no. 1 - III. Finale" PERFORMER "Trio Cascades" INDEX 00 45:10:57 INDEX 01 45:13:06 TRACK 09 AUDIO FLAGS DCP TITLE "Piano Trio No. 4 in E minor, Op. 14 no. 1 - I. Allegro espressivo" PERFORMER "Trio Cascades" INDEX 00 52:18:63 INDEX 01 52:28:21 TRACK 10 AUDIO FLAGS DCP TITLE "Piano Trio No. 4 in E minor, Op. 14 no. 1 - II. Andante grazioso" PERFORMER "Trio Cascades" INDEX 00 59:10:54 INDEX 01 59:12:12 TRACK 11 AUDIO FLAGS DCP TITLE "Piano Trio No. 4 in E minor, Op. 14 no. 1 - III. Minuetto. Presto" PERFORMER "Trio Cascades" INDEX 00 64:37:13 INDEX 01 64:39:09 TRACK 12 AUDIO FLAGS DCP TITLE "Piano Trio No. 4 in E minor, Op. 14 no. 1 - IV. Finale. Allegretto" PERFORMER "Trio Cascades" INDEX 00 67:10:59 INDEX 01 67:12:51 INDEX 02 74:20:60

CD 4.

REM GENRE ClassicalREM DISCID 9911AB0CREM COMMENT "ExactAudioCopy v1.0b3"PERFORMER "Trio Cascades"TITLE "George Onslow – Piano Trios – Trio Cascades (Vol. 4)"FILE "George Onslow – Piano Trios – Trio Cascades (Vol. 4).flac" WAVE TRACK 01 AUDIO FLAGS DCP TITLE "Piano Trio No. 8 in C minor, Op. 26 - I. Allegro espressivo" PERFORMER "Trio Cascades" INDEX 00 00:00:00 INDEX 01 00:05:24 TRACK 02 AUDIO FLAGS DCP TITLE "Piano Trio No. 8 in C minor, Op. 26 - II. Adagio" PERFORMER "Trio Cascades" INDEX 00 11:00:32 INDEX 01 11:03:00 TRACK 03 AUDIO FLAGS DCP TITLE "Piano Trio No. 8 in C minor, Op. 26 - III. Minuetto. Presto" PERFORMER "Trio Cascades" INDEX 00 19:16:10 INDEX 01 19:18:40 TRACK 04 AUDIO FLAGS DCP TITLE "Piano Trio No. 8 in C minor, Op. 26 - IV. Finale. Allegro agitato" PERFORMER "Trio Cascades" INDEX 00 24:40:68 INDEX 01 24:45:14 TRACK 05 AUDIO FLAGS DCP TITLE "Piano Trio No. 6 in D major, Op. 14 no. 3 - I. Allegro vivace assai" PERFORMER "Trio Cascades" INDEX 00 30:31:70 INDEX 01 30:44:08 TRACK 06 AUDIO FLAGS DCP TITLE "Piano Trio No. 6 in D major, Op. 14 no. 3 - II. Andante non troppo lento" PERFORMER "Trio Cascades" INDEX 00 34:49:02 INDEX 01 34:50:51 TRACK 07 AUDIO FLAGS DCP TITLE "Piano Trio No. 6 in D major, Op. 14 no. 3 - III. Minuetto. Allegro" PERFORMER "Trio Cascades" INDEX 00 40:10:65 INDEX 01 40:12:04 TRACK 08 AUDIO FLAGS DCP TITLE "Piano Trio No. 6 in D major, Op. 14 no. 3 - IV. Finale. Presto" PERFORMER "Trio Cascades" INDEX 01 45:22:11 TRACK 09 AUDIO FLAGS DCP TITLE "Piano Trio No. 3 in G minor, Op. 3 no. 3 - I. Vivace" PERFORMER "Trio Cascades" INDEX 00 50:17:30 INDEX 01 50:29:64 TRACK 10 AUDIO FLAGS DCP TITLE "Piano Trio No. 3 in G minor, Op. 3 no. 3 - II. Andante cantabile, quasi adagio" PERFORMER "Trio Cascades" INDEX 00 57:10:16 INDEX 01 57:13:37 TRACK 11 AUDIO FLAGS DCP TITLE "Piano Trio No. 3 in G minor, Op. 3 no. 3 - III. Minuetto. Presto non tanto" PERFORMER "Trio Cascades" INDEX 00 64:00:15 INDEX 01 64:01:63 TRACK 12 AUDIO FLAGS DCP TITLE "Piano Trio No. 3 in G minor, Op. 3 no. 3 - IV. Finale. Allegro agitato" PERFORMER "Trio Cascades" INDEX 00 69:07:22 INDEX 01 69:13:59 INDEX 02 75:21:06



Показать сообщения:    

Текущее время: 11-Дек 16:51

Часовой пояс: UTC + 3


Вы не можете начинать темы
Вы не можете отвечать на сообщения
Вы не можете редактировать свои сообщения
Вы не можете удалять свои сообщения
Вы не можете голосовать в опросах
Вы не можете прикреплять файлы к сообщениям
Вы не можете скачивать файлы