(Classical) Joaquin Saura, Cuarteto Musica Antigua, Eduardo Paniagua · El Organo de Papel de Leonardo da Vinci · 2000, FLAC (tracks+.cue) lossless


 

[Цитировать]

El Órgano de Papel
de Leonardo da Vinci

Жанр: classical
Страна-производитель диска: España (Madrid)
Год издания диска: 2000
Издатель (лейбл): Villamonte
Номер по каталогу: —
Аудиокодек: FLAC
Тип рипа: tracks+.cue
Битрейт аудио: lossless
Продолжительность: 01:05:55
Источник: скачано с what.cd
Наличие сканов в содержимом раздачи: да-Исполнители:
Joaquín Saura
acompañado por el
Cuarteto Música Antigua
bajo la dirección de
Eduardo Paniagua

Треклист:

01. Ich Bins Erfrewt (2:59)
Anónimo (hacia 1480)
Cjlogauer Liederbuch
Órgano, vihuela, salterio, viola de gamba, cascabeles.

02. Mit Ganczem Willen (4:57)
Conrad Paumann (1410–1473)
Fundamentum Organisandi, 1452
Órgano, flauta alto, vihuela, violas de b. y g., cántaras.

03. La pena sin ser sabida (2:26)
Johannes Vincenet (hacia 1479)
Mellon Chansonier
Órgano, canto, flauta tenor, viola de gamba, tambor.

04. My lady carey’s dompe (3:23)
Anónimo (hacia 1525)
British Museum. Roy. App. 58.
Órgano, regalía, viola de gamba, vihuela, dulcimer.

05. Duo sin texto (2:35)
Anónimo S. XV
Cancionero de la Colombina f. 62, Sevilla
Órgano, flauta tenor.

06. Una musque de Buscgaya (2:50)
Josquin Desprez (hacia 1440–1521)
Canti C, Odhecaton, Petrucci, Venecia 1503.
Órgano, flauta tenor, vihuela, violas de b. y g., cántara.

07. La bassa Castiglia-Falla con misuras (3:28)
Gulielmus (hacia 1415)
Biblioteca Comunale, Perugia MS. 431
Rauta tenor, viola de g., vihuela, órgano, dulcimer y pandero.

08. Fortuna desperata (4:26)
Antoine Busnois (hacia 1492)
British Museum Add. MS. 31922
Órgano, salterio, vihuela, viola de brazo, pandero.[
/size]
09. Spanyöler Tancz (3:49)
Hans Weck (1495–1536)
Amerbach Buxheimer Orgelbuch, Munich
Órgano, vihuela, viola de g., flauta t., tambor, sonajas, címbalos.

10. Pues no mejora mi suerte/sospiros (4:38)
Anónimo
Cancionero de la Colombina, Sevilla S. XV
Órgano, zanfona, flauta, viola de g., vihuela, salterio, pandero.

11. Innsbruk, ich Muss Dich Lassen (3:27)
Heinrich Isaac (hacia 1450–1517)
Biblioteca de la Universidad de Basilea.
Órgano, flauta a., vihuela, violas de b. y g., tambor, pandereta.

12. Justa fue mi perdición (4:09)
Francisco de la Torre (S. XV, texto de Jorge Manrique
Cancionero de Segovia, Archivo de la Catedral.
Órgano, canto, flauta tenor, viola de gamba.

13. Alta (Danza sobre La Spagna) (3:16)
Francisco de la Torre (S. XV y XVI)
Cancionero Musical de Palacio, Bibl. Real, Madrid.
Órgano, fl., violas de b. y g., vihuela, cántara, tambor y campanil.

14. Je n’ay dueil (3:29)
Alexander Agrícola (hacia 1446–1506)
Odhecaton, Petrucci, Venecia 1501
Órgano, flauta tenor, violas de b. y g., vihuela, panderete.

15–20. Calatas a la spagnola
Joanambrosio Dalza (hacia 1500)
lntabolatura de Lauto, Milán 1508

– Calata 1 (3:03)
– Calata 2 (2:40)
– Calata 3 (2:08)
– Calata 4 (2:27)
– Calata 5 (2:46)
– Calata 6 (3:00)

Лог создания рипа

X Lossless Decoder version 20121027 (142.1)
XLD extraction logfile from 2012-12-22 00:10:40 +0100
Joaquin Saura, Eduardo Paniagua / El Extraordinario Organo de Papel de Leonardo da Vinci
Used drive : MATSHITA DVD-R UJ-898 (revision HA07)
Ripper mode : XLD Secure RipperDisable audio cache : OK for the drive with a cache less than 1375KiBMake use of C2 pointers : NORead offset correction : 102Max retry count : 20Gap status : Analyzed, Appended (except HTOA)
TOC of the extracted CD Track | Start | Length | Start sector | End sector --------------------------------------------------------- 1 | 00:00:00 | 02:58:64 | 0 | 13413 2 | 02:58:64 | 04:56:55 | 13414 | 35668 3 | 07:55:44 | 02:26:36 | 35669 | 46654 4 | 10:22:05 | 03:23:31 | 46655 | 61910 5 | 13:45:36 | 02:35:30 | 61911 | 73565 6 | 16:20:66 | 02:50:28 | 73566 | 86343 7 | 19:11:19 | 03:28:13 | 86344 | 101956 8 | 22:39:32 | 04:25:51 | 101957 | 121882 9 | 27:05:08 | 03:48:45 | 121883 | 139027 10 | 30:53:53 | 04:38:16 | 139028 | 159893 11 | 35:31:69 | 03:26:51 | 159894 | 175394 12 | 38:58:45 | 04:09:09 | 175395 | 194078 13 | 43:07:54 | 03:15:62 | 194079 | 208765 14 | 46:23:41 | 03:28:55 | 208766 | 224420 15 | 49:52:21 | 03:03:01 | 224421 | 238146 16 | 52:55:22 | 02:40:25 | 238147 | 250171 17 | 55:35:47 | 02:07:45 | 250172 | 259741 18 | 57:43:17 | 02:27:08 | 259742 | 270774 19 | 60:10:25 | 02:45:41 | 270775 | 283190 20 | 62:55:66 | 02:59:41 | 283191 | 296656
AccurateRip Summary Disc not found in AccurateRip DB.
All Tracks Album gain : -3.86 dB Peak : 1.000000 Statistics Read error : 0 Jitter error (maybe fixed) : 0 Retry sector count : 0 Damaged sector count : 0
Track 01 Filename : /Volumes/MUSIC/T/Various Artists - El Organo de Papel de Leonardo (2000) [FLAC]/01 - Anonymous - Ich Binis Efrewt (Glogauer Liederbuch, ca. 1480).flac Pre-gap length : 00:02:00
Track gain : -4.80 dB Peak : 1.000000 CRC32 hash (test run) : 2CB5507A CRC32 hash : 2CB5507A CRC32 hash (skip zero) : DCD08709 AccurateRip v1 signature : 9D0BD7A5 AccurateRip v2 signature : 92C9E8D5 ->Track not present in AccurateRip database. Statistics Read error : 0 Jitter error (maybe fixed) : 0 Retry sector count : 0 Damaged sector count : 0
Track 02 Filename : /Volumes/MUSIC/T/Various Artists - El Organo de Papel de Leonardo (2000) [FLAC]/02 - Conrad Paumann - Mit Ganczem Willen (Fundamentum Organisandi, 1452).flac
Track gain : -3.99 dB Peak : 0.950134 CRC32 hash (test run) : FCD07650 CRC32 hash : FCD07650 CRC32 hash (skip zero) : AED9B773 AccurateRip v1 signature : AE5483AC AccurateRip v2 signature : 6C6988B1 ->Track not present in AccurateRip database. Statistics Read error : 0 Jitter error (maybe fixed) : 0 Retry sector count : 0 Damaged sector count : 0
Track 03 Filename : /Volumes/MUSIC/T/Various Artists - El Organo de Papel de Leonardo (2000) [FLAC]/03 - Johannes Vincenet - La pena sin ser sabida (ca.1479, Mellon Chansonier).flac
Track gain : -4.73 dB Peak : 0.905090 CRC32 hash (test run) : E4F8F871 CRC32 hash : E4F8F871 CRC32 hash (skip zero) : C3A7964E AccurateRip v1 signature : B5E43183 AccurateRip v2 signature : 60A14785 ->Track not present in AccurateRip database. Statistics Read error : 0 Jitter error (maybe fixed) : 0 Retry sector count : 0 Damaged sector count : 0
Track 04 Filename : /Volumes/MUSIC/T/Various Artists - El Organo de Papel de Leonardo (2000) [FLAC]/04 - Anonymous - My Lady carey's dompe (ca. 1525, British Museum. Roy. App, 58).flac
Track gain : -5.24 dB Peak : 0.908783 CRC32 hash (test run) : 6ACF0A07 CRC32 hash : 6ACF0A07 CRC32 hash (skip zero) : F6831048 AccurateRip v1 signature : 100F392C AccurateRip v2 signature : 13C9A864 ->Track not present in AccurateRip database. Statistics Read error : 0 Jitter error (maybe fixed) : 0 Retry sector count : 0 Damaged sector count : 0
Track 05 Filename : /Volumes/MUSIC/T/Various Artists - El Organo de Papel de Leonardo (2000) [FLAC]/05 - Anonymous - Duo sin texto (s.XV, Cancionero de la Colombina f. 62, Sevilla).flac
Track gain : -3.22 dB Peak : 0.555664 CRC32 hash (test run) : F95434D1 CRC32 hash : F95434D1 CRC32 hash (skip zero) : D8A324BE AccurateRip v1 signature : BBD7D8E5 AccurateRip v2 signature : EBAD8F63 ->Track not present in AccurateRip database. Statistics Read error : 0 Jitter error (maybe fixed) : 0 Retry sector count : 0 Damaged sector count : 0
Track 06 Filename : /Volumes/MUSIC/T/Various Artists - El Organo de Papel de Leonardo (2000) [FLAC]/06 - Josquin Desprez - Una musque de Buscgaya (Canti C, Odhecaton, Petrucci, Venecia, 1503).flac
Track gain : -4.19 dB Peak : 0.881287 CRC32 hash (test run) : EB0B95BC CRC32 hash : EB0B95BC CRC32 hash (skip zero) : 223149F5 AccurateRip v1 signature : 2CD4B430 AccurateRip v2 signature : 8C7D7CF6 ->Track not present in AccurateRip database. Statistics Read error : 0 Jitter error (maybe fixed) : 0 Retry sector count : 0 Damaged sector count : 0
Track 07 Filename : /Volumes/MUSIC/T/Various Artists - El Organo de Papel de Leonardo (2000) [FLAC]/07 - Gulielmus - La bassa Castiglia-Falla con misuras (ca.1475, Biblioteca Comunale, Perugia, MS. 431).flac
Track gain : -3.62 dB Peak : 0.956024 CRC32 hash (test run) : 3656F862 CRC32 hash : 3656F862 CRC32 hash (skip zero) : DA37D0FF AccurateRip v1 signature : 9E03EE2D AccurateRip v2 signature : E41F02EC ->Track not present in AccurateRip database. Statistics Read error : 0 Jitter error (maybe fixed) : 0 Retry sector count : 0 Damaged sector count : 0
Track 08 Filename : /Volumes/MUSIC/T/Various Artists - El Organo de Papel de Leonardo (2000) [FLAC]/08 - Antoine Busnois - Fortuna desperata (ca.1492, British Museum, Add. MS. 31922).flac
Track gain : -3.83 dB Peak : 0.971680 CRC32 hash (test run) : A966275E CRC32 hash : A966275E CRC32 hash (skip zero) : 1F6074C0 AccurateRip v1 signature : 06714052 AccurateRip v2 signature : F996A16D ->Track not present in AccurateRip database. Statistics Read error : 0 Jitter error (maybe fixed) : 0 Retry sector count : 0 Damaged sector count : 0
Track 09 Filename : /Volumes/MUSIC/T/Various Artists - El Organo de Papel de Leonardo (2000) [FLAC]/09 - Hans Weck - Spanyoler Tancz (Amerbach Buxheimer Orguelbuch, Munich).flac
Track gain : -2.64 dB Peak : 0.999969 CRC32 hash (test run) : 444EDC29 CRC32 hash : 444EDC29 CRC32 hash (skip zero) : 8DF6DD62 AccurateRip v1 signature : 8394AD9F AccurateRip v2 signature : 675E5AE1 ->Track not present in AccurateRip database. Statistics Read error : 0 Jitter error (maybe fixed) : 0 Retry sector count : 0 Damaged sector count : 0
Track 10 Filename : /Volumes/MUSIC/T/Various Artists - El Organo de Papel de Leonardo (2000) [FLAC]/10 - Anonymous - Pues no mejora mi suerte - sospiros (Cancionero de la Colombina, Sevilla, s. XV).flac
Track gain : -0.94 dB Peak : 0.843079 CRC32 hash (test run) : C177B530 CRC32 hash : C177B530 CRC32 hash (skip zero) : 0CD8B282 AccurateRip v1 signature : 2DA1369F AccurateRip v2 signature : 09884FD3 ->Track not present in AccurateRip database. Statistics Read error : 0 Jitter error (maybe fixed) : 0 Retry sector count : 0 Damaged sector count : 0
Track 11 Filename : /Volumes/MUSIC/T/Various Artists - El Organo de Papel de Leonardo (2000) [FLAC]/11 - Heinrich Isaac - Innsbruk, ich Muss Dich Lassen (Basilea University Libray).flac
Track gain : -3.85 dB Peak : 0.868286 CRC32 hash (test run) : 1A80B089 CRC32 hash : 1A80B089 CRC32 hash (skip zero) : 880E0CFD AccurateRip v1 signature : 7CF699EC AccurateRip v2 signature : 763ACA22 ->Track not present in AccurateRip database. Statistics Read error : 0 Jitter error (maybe fixed) : 0 Retry sector count : 0 Damaged sector count : 0
Track 12 Filename : /Volumes/MUSIC/T/Various Artists - El Organo de Papel de Leonardo (2000) [FLAC]/12 - Francisco de la Torre - Justa fue mi perdicion (s.XV, Cancionero de Segovia, Archivo de la Catedral).flac
Track gain : -4.18 dB Peak : 0.877808 CRC32 hash (test run) : 2C863553 CRC32 hash : 2C863553 CRC32 hash (skip zero) : 8812810A AccurateRip v1 signature : 21201CF8 AccurateRip v2 signature : EF0A30AF ->Track not present in AccurateRip database. Statistics Read error : 0 Jitter error (maybe fixed) : 0 Retry sector count : 0 Damaged sector count : 0
Track 13 Filename : /Volumes/MUSIC/T/Various Artists - El Organo de Papel de Leonardo (2000) [FLAC]/13 - Francisco de la Torre - Alta. Danza sobre la Spagna (Cancionero de Palacio, Bibl. Real, Madrid).flac
Track gain : -5.05 dB Peak : 0.882019 CRC32 hash (test run) : 543CCD83 CRC32 hash : 543CCD83 CRC32 hash (skip zero) : 6551AD9C AccurateRip v1 signature : AD52B530 AccurateRip v2 signature : 2367F97A ->Track not present in AccurateRip database. Statistics Read error : 0 Jitter error (maybe fixed) : 0 Retry sector count : 0 Damaged sector count : 0
Track 14 Filename : /Volumes/MUSIC/T/Various Artists - El Organo de Papel de Leonardo (2000) [FLAC]/14 - Alexander Agricola - Je n'ay dueil (Odecathon, Petrucci, Venecia 1501).flac
Track gain : -2.82 dB Peak : 0.945190 CRC32 hash (test run) : 7A446EF0 CRC32 hash : 7A446EF0 CRC32 hash (skip zero) : 45E5BE1F AccurateRip v1 signature : 12E4A570 AccurateRip v2 signature : 18668152 ->Track not present in AccurateRip database. Statistics Read error : 0 Jitter error (maybe fixed) : 0 Retry sector count : 0 Damaged sector count : 0
Track 15 Filename : /Volumes/MUSIC/T/Various Artists - El Organo de Papel de Leonardo (2000) [FLAC]/15 - Joanambrosio Dalza - Calatas a la Spagnola - Calata 1 (Intabolatura di lauto, Milan 1508).flac
Track gain : -0.49 dB Peak : 0.934601 CRC32 hash (test run) : DAD8751A CRC32 hash : DAD8751A CRC32 hash (skip zero) : 402D12D8 AccurateRip v1 signature : C03EFE88 AccurateRip v2 signature : B0914BF9 ->Track not present in AccurateRip database. Statistics Read error : 0 Jitter error (maybe fixed) : 0 Retry sector count : 0 Damaged sector count : 0
Track 16 Filename : /Volumes/MUSIC/T/Various Artists - El Organo de Papel de Leonardo (2000) [FLAC]/16 - Joanambrosio Dalza - Calatas a la Spagnola - Calata 2 (Intabolatura di lauto, Milan 1508).flac
Track gain : -0.98 dB Peak : 0.676971 CRC32 hash (test run) : 7D559289 CRC32 hash : 7D559289 CRC32 hash (skip zero) : BF5AC12B AccurateRip v1 signature : 286B325B AccurateRip v2 signature : 53FF007A ->Track not present in AccurateRip database. Statistics Read error : 0 Jitter error (maybe fixed) : 0 Retry sector count : 0 Damaged sector count : 0
Track 17 Filename : /Volumes/MUSIC/T/Various Artists - El Organo de Papel de Leonardo (2000) [FLAC]/17 - Joanambrosio Dalza - Calatas a la Spagnola - Calata 3 (Intabolatura di lauto, Milan 1508).flac
Track gain : -0.92 dB Peak : 0.922089 CRC32 hash (test run) : FC8170A4 CRC32 hash : FC8170A4 CRC32 hash (skip zero) : D6B6E722 AccurateRip v1 signature : 5C68A9CE AccurateRip v2 signature : EA006491 ->Track not present in AccurateRip database. Statistics Read error : 0 Jitter error (maybe fixed) : 0 Retry sector count : 0 Damaged sector count : 0
Track 18 Filename : /Volumes/MUSIC/T/Various Artists - El Organo de Papel de Leonardo (2000) [FLAC]/18 - Joanambrosio Dalza - Calatas a la Spagnola - Calata 4 (Intabolatura di lauto, Milan 1508).flac
Track gain : -1.72 dB Peak : 0.632538 CRC32 hash (test run) : 84ABFD83 CRC32 hash : 84ABFD83 CRC32 hash (skip zero) : 6DC3C8D6 AccurateRip v1 signature : 60FEA7AE AccurateRip v2 signature : B9089D6E ->Track not present in AccurateRip database. Statistics Read error : 0 Jitter error (maybe fixed) : 0 Retry sector count : 0 Damaged sector count : 0
Track 19 Filename : /Volumes/MUSIC/T/Various Artists - El Organo de Papel de Leonardo (2000) [FLAC]/19 - Joanambrosio Dalza - Calatas a la Spagnola - Calata 5 (Intabolatura di lauto, Milan 1508).flac
Track gain : -3.22 dB Peak : 0.890778 CRC32 hash (test run) : E05BB30E CRC32 hash : E05BB30E CRC32 hash (skip zero) : 463D8D7E AccurateRip v1 signature : F7264F09 AccurateRip v2 signature : AFB5199F ->Track not present in AccurateRip database. Statistics Read error : 0 Jitter error (maybe fixed) : 0 Retry sector count : 0 Damaged sector count : 0
Track 20 Filename : /Volumes/MUSIC/T/Various Artists - El Organo de Papel de Leonardo (2000) [FLAC]/20 - Joanambrosio Dalza - Calatas a la Spagnola - Calata 6 (Intabolatura di lauto, Milan 1508).flac
Track gain : -0.27 dB Peak : 0.671875 CRC32 hash (test run) : 096DA1F6 CRC32 hash : 096DA1F6 CRC32 hash (skip zero) : C67935CA AccurateRip v1 signature : 96652C20 AccurateRip v2 signature : 4D3D4084 ->Track not present in AccurateRip database. Statistics Read error : 0 Jitter error (maybe fixed) : 0 Retry sector count : 0 Damaged sector count : 0
No errors occurred
End of status report

Содержание индексной карты (.CUE)

TITLE "Concierto de Música Europea del Siglo XV interpretado en el extraordinario Órgano de Papel de Leonardo da Vinci"PERFORMER "Joaquín Saura · Cuarteto Música Antigua · Eduardo Paniagua"REM DATE "2000"REM DISCID 360F7314FILE "01. Ich Bins Erfrewt.wav" WAVE TRACK 01 AUDIO TITLE "Ich Bins Erfrewt" PERFORMER "Joaquín Saura · Cuarteto Música Antigua · Eduardo Paniagua" REM REPLAYGAIN_TRACK_GAIN -4.80 dB REM REPLAYGAIN_TRACK_PEAK 1.000000 INDEX 01 00:00:00FILE "02. Mit Ganczem Willen.wav" WAVE TRACK 02 AUDIO TITLE "Mit Ganczem Willen" PERFORMER "Joaquín Saura · Cuarteto Música Antigua · Eduardo Paniagua" INDEX 01 00:00:00FILE "03. La pena sin ser sabida.wav" WAVE TRACK 03 AUDIO TITLE "La pena sin ser sabida" PERFORMER "Joaquín Saura · Cuarteto Música Antigua · Eduardo Paniagua" INDEX 01 00:00:00FILE "04. My lady carey’s dompe.wav" WAVE TRACK 04 AUDIO TITLE "My lady carey’s dompe" PERFORMER "Joaquín Saura · Cuarteto Música Antigua · Eduardo Paniagua" INDEX 01 00:00:00FILE "05. Duo sin texto.wav" WAVE TRACK 05 AUDIO TITLE "Duo sin texto" PERFORMER "Joaquín Saura · Cuarteto Música Antigua · Eduardo Paniagua" INDEX 01 00:00:00FILE "06. Una musque de Buscgaya.wav" WAVE TRACK 06 AUDIO TITLE "Una musque de Buscgaya" PERFORMER "Joaquín Saura · Cuarteto Música Antigua · Eduardo Paniagua" INDEX 01 00:00:00FILE "07. La bassa Castiglia-Falla con misuras.wav" WAVE TRACK 07 AUDIO TITLE "La bassa Castiglia-Falla con misuras" PERFORMER "Joaquín Saura · Cuarteto Música Antigua · Eduardo Paniagua" INDEX 01 00:00:00FILE "08. Fortuna desperata.wav" WAVE TRACK 08 AUDIO TITLE "Fortuna desperata" PERFORMER "Joaquín Saura · Cuarteto Música Antigua · Eduardo Paniagua" INDEX 01 00:00:00FILE "09. Spanyöler Tancz.wav" WAVE TRACK 09 AUDIO TITLE "Spanyöler Tancz" PERFORMER "Joaquín Saura · Cuarteto Música Antigua · Eduardo Paniagua" INDEX 01 00:00:00FILE "10. Pues no mejora mi suerte·sospiros.wav" WAVE TRACK 10 AUDIO TITLE "Pues no mejora mi suerte/sospiros" PERFORMER "Joaquín Saura · Cuarteto Música Antigua · Eduardo Paniagua" INDEX 01 00:00:00FILE "11. Innsbruk, ich Muss Dich Lassen.wav" WAVE TRACK 11 AUDIO TITLE "Innsbruk, ich Muss Dich Lassen" PERFORMER "Joaquín Saura · Cuarteto Música Antigua · Eduardo Paniagua" INDEX 01 00:00:00FILE "12. Justa fue mi perdición.wav" WAVE TRACK 12 AUDIO TITLE "Justa fue mi perdición" PERFORMER "Joaquín Saura · Cuarteto Música Antigua · Eduardo Paniagua" INDEX 01 00:00:00FILE "13. Alta (Danza sobre La Spagna).wav" WAVE TRACK 13 AUDIO TITLE "Alta (Danza sobre La Spagna)" PERFORMER "Joaquín Saura · Cuarteto Música Antigua · Eduardo Paniagua" INDEX 01 00:00:00FILE "14. Je n’ay dueil.wav" WAVE TRACK 14 AUDIO TITLE "Je n’ay dueil" PERFORMER "Joaquín Saura · Cuarteto Música Antigua · Eduardo Paniagua" INDEX 01 00:00:00FILE "15. Calatas a la spagnola – 1.wav" WAVE TRACK 15 AUDIO TITLE "Calatas a la spagnola – 1" PERFORMER "Joaquín Saura · Cuarteto Música Antigua · Eduardo Paniagua" INDEX 01 00:00:00FILE "16. Calatas a la spagnola – 2.wav" WAVE TRACK 16 AUDIO TITLE "Calatas a la spagnola – 2" PERFORMER "Joaquín Saura · Cuarteto Música Antigua · Eduardo Paniagua" INDEX 01 00:00:00FILE "17. Calatas a la spagnola – 3.wav" WAVE TRACK 17 AUDIO TITLE "Calatas a la spagnola – 3" PERFORMER "Joaquín Saura · Cuarteto Música Antigua · Eduardo Paniagua" INDEX 01 00:00:00FILE "18. Calatas a la spagnola – 4.wav" WAVE TRACK 18 AUDIO TITLE "Calatas a la spagnola – 4" PERFORMER "Joaquín Saura · Cuarteto Música Antigua · Eduardo Paniagua" INDEX 01 00:00:00FILE "19. Calatas a la spagnola – 5.wav" WAVE TRACK 19 AUDIO TITLE "Calatas a la spagnola – 5" PERFORMER "Joaquín Saura · Cuarteto Música Antigua · Eduardo Paniagua" INDEX 01 00:00:00FILE "20. Calatas a la spagnola – 6.wav" WAVE TRACK 20 AUDIO TITLE "Calatas a la spagnola – 6" PERFORMER "Joaquín Saura · Cuarteto Música Antigua · Eduardo Paniagua" INDEX 01 00:00:00



Показать сообщения:    

Текущее время: 11-Дек 11:09

Часовой пояс: UTC + 3


Вы не можете начинать темы
Вы не можете отвечать на сообщения
Вы не можете редактировать свои сообщения
Вы не можете удалять свои сообщения
Вы не можете голосовать в опросах
Вы не можете прикреплять файлы к сообщениям
Вы не можете скачивать файлы