(Classical) Marin Marais - Pieces de viole. Book V - Rainer Zipperling, Ghislaine Wauters, Pieter-Jan Belder - 4CD - 2014, FLAC (image+.cue) lossless


 

[Цитировать]

Marin Marais - Pièces de viole. Book V - Rainer Zipperling, Ghislaine Wauters, Pieter-Jan Belder
Жанр: Classical
Год издания диска: 2014
Издатель (лейбл): Brilliant Classics
Номер по каталогу: 94646
Дата записи: 2013
Аудиокодек: FLAC
Тип рипа: image+.cue
Битрейт аудио: lossless
Продолжительность: 231:23
Источник: собственный рип
Наличие сканов в содержимом раздачи: да
Треклист:
Marin Marais (1656-1728)
Pièces de viole
Book V (1725)
CD1
[1]-[16] Suite No.1
[17]-[28] Suite No.2
CD2
[1]-[13] Suite No.3
[14]-[30] Suite No.4
CD3
[1]-[11] Suite No.5
[12]-[28] Suite No.6
CD4
[1]-[24] Suite No.7
Исполнители:
Rainer Zipperling, Ghislaine Wauters viola da gamba
Pieter-Jan Belder harpsichord

Лог создания рипа: CD1

Exact Audio Copy V1.0 beta 3 from 29. August 2011
EAC extraction logfile from 23. June 2014, 18:39
Rainer Zipperling, Pieter-Jan Belder, Ghislaine Wauters / Marais - Pieces de viole - Book V - CD1
Used drive : HL-DT-STDVDRRW GWA-4164B Adapter: 5 ID: 0
Read mode : SecureUtilize accurate stream : YesDefeat audio cache : YesMake use of C2 pointers : No
Read offset correction : 102Overread into Lead-In and Lead-Out : NoFill up missing offset samples with silence : YesDelete leading and trailing silent blocks : NoNull samples used in CRC calculations : YesUsed interface : Native Win32 interface for Win NT & 2000
Used output format : User Defined EncoderSelected bitrate : 896 kBit/sQuality : HighAdd ID3 tag : NoCommand line compressor : C:\Program Files\Exact Audio Copy\FLAC\FLAC.EXEAdditional command line options : -V -8 %source%
TOC of the extracted CD
Track | Start | Length | Start sector | End sector --------------------------------------------------------- 1 | 0:00.00 | 2:03.34 | 0 | 9258 2 | 2:03.34 | 1:35.42 | 9259 | 16425 3 | 3:39.01 | 3:03.16 | 16426 | 30166 4 | 6:42.17 | 1:24.30 | 30167 | 36496 5 | 8:06.47 | 1:22.67 | 36497 | 42713 6 | 9:29.39 | 1:19.25 | 42714 | 48663 7 | 10:48.64 | 2:26.54 | 48664 | 59667 8 | 13:15.43 | 1:08.40 | 59668 | 64807 9 | 14:24.08 | 0:39.70 | 64808 | 67802 10 | 15:04.03 | 2:33.21 | 67803 | 79298 11 | 17:37.24 | 0:38.04 | 79299 | 82152 12 | 18:15.28 | 1:37.61 | 82153 | 89488 13 | 19:53.14 | 1:32.13 | 89489 | 96401 14 | 21:25.27 | 1:40.26 | 96402 | 103927 15 | 23:05.53 | 4:44.36 | 103928 | 125263 16 | 27:50.14 | 2:02.04 | 125264 | 134417 17 | 29:52.18 | 2:13.19 | 134418 | 144411 18 | 32:05.37 | 1:49.48 | 144412 | 152634 19 | 33:55.10 | 2:40.18 | 152635 | 164652 20 | 36:35.28 | 1:16.60 | 164653 | 170412 21 | 37:52.13 | 1:44.29 | 170413 | 178241 22 | 39:36.42 | 1:25.58 | 178242 | 184674 23 | 41:02.25 | 2:02.58 | 184675 | 193882 24 | 43:05.08 | 2:21.65 | 193883 | 204522 25 | 45:26.73 | 0:56.54 | 204523 | 208776 26 | 46:23.52 | 3:40.18 | 208777 | 225294 27 | 50:03.70 | 3:26.30 | 225295 | 240774 28 | 53:30.25 | 2:44.26 | 240775 | 253100
Range status and errors
Selected range
Filename D:\temp\Music\Marais - Pieces de viole - Book V\Marais - Pieces de viole - Book V - CD1.wav
Peak level 57.6 % Extraction speed 2.0 X Range quality 100.0 % Test CRC 2B56DF69 Copy CRC 2B56DF69 Copy OK
No errors occurred
AccurateRip summary
Track 1 accurately ripped (confidence 1) [8777FBBA] (AR v2)Track 2 accurately ripped (confidence 1) [41F4921C] (AR v2)Track 3 accurately ripped (confidence 1) [5A005E1E] (AR v2)Track 4 accurately ripped (confidence 1) [7978ECB3] (AR v2)Track 5 accurately ripped (confidence 1) [652DCD20] (AR v2)Track 6 accurately ripped (confidence 1) [0310B69A] (AR v2)Track 7 accurately ripped (confidence 1) [8F47AA6E] (AR v2)Track 8 accurately ripped (confidence 1) [665982B7] (AR v2)Track 9 accurately ripped (confidence 1) [05380F39] (AR v2)Track 10 accurately ripped (confidence 1) [0DF24DE3] (AR v2)Track 11 accurately ripped (confidence 1) [F1923384] (AR v2)Track 12 accurately ripped (confidence 1) [922E9122] (AR v2)Track 13 accurately ripped (confidence 1) [E29DAAF7] (AR v2)Track 14 accurately ripped (confidence 1) [0642C47B] (AR v2)Track 15 accurately ripped (confidence 1) [92A78963] (AR v2)Track 16 accurately ripped (confidence 1) [B04D58AA] (AR v2)Track 17 accurately ripped (confidence 1) [BC68BFF0] (AR v2)Track 18 accurately ripped (confidence 1) [E2CD3A97] (AR v2)Track 19 accurately ripped (confidence 1) [78831426] (AR v2)Track 20 accurately ripped (confidence 1) [D814AA6E] (AR v2)Track 21 accurately ripped (confidence 1) [A20B8F09] (AR v2)Track 22 accurately ripped (confidence 1) [9A637F6B] (AR v2)Track 23 accurately ripped (confidence 1) [7A91AD16] (AR v2)Track 24 accurately ripped (confidence 1) [AFC1F56B] (AR v2)Track 25 accurately ripped (confidence 1) [32D8CA71] (AR v2)Track 26 accurately ripped (confidence 1) [A8584D3B] (AR v2)Track 27 accurately ripped (confidence 1) [F746E3F6] (AR v2)Track 28 accurately ripped (confidence 1) [D7D23DB1] (AR v2)
All tracks accurately ripped
End of status report
==== Log checksum C0B175F73FAC9F637443E45D0085AAB0896231500B485B306FCB584069FDD774 ====

Лог создания рипа: CD2

Exact Audio Copy V1.0 beta 3 from 29. August 2011
EAC extraction logfile from 24. June 2014, 16:54
Rainer Zipperling, Pieter-Jan Belder, Ghislaine Wauters / Marais - Pieces de viole - Book V - CD2
Used drive : HL-DT-STDVDRRW GWA-4164B Adapter: 5 ID: 0
Read mode : SecureUtilize accurate stream : YesDefeat audio cache : YesMake use of C2 pointers : No
Read offset correction : 102Overread into Lead-In and Lead-Out : NoFill up missing offset samples with silence : YesDelete leading and trailing silent blocks : NoNull samples used in CRC calculations : YesUsed interface : Native Win32 interface for Win NT & 2000
Used output format : User Defined EncoderSelected bitrate : 896 kBit/sQuality : HighAdd ID3 tag : NoCommand line compressor : C:\Program Files\Exact Audio Copy\FLAC\FLAC.EXEAdditional command line options : -V -8 %source%
TOC of the extracted CD
Track | Start | Length | Start sector | End sector --------------------------------------------------------- 1 | 0:00.00 | 1:55.69 | 0 | 8693 2 | 1:55.69 | 2:06.62 | 8694 | 18205 3 | 4:02.56 | 3:11.70 | 18206 | 32600 4 | 7:14.51 | 1:44.71 | 32601 | 40471 5 | 8:59.47 | 0:45.21 | 40472 | 43867 6 | 9:44.68 | 1:40.44 | 43868 | 51411 7 | 11:25.37 | 1:24.00 | 51412 | 57711 8 | 12:49.37 | 2:06.40 | 57712 | 67201 9 | 14:56.02 | 3:22.54 | 67202 | 82405 10 | 18:18.56 | 2:31.00 | 82406 | 93730 11 | 20:49.56 | 1:45.43 | 93731 | 101648 12 | 22:35.24 | 2:22.25 | 101649 | 112323 13 | 24:57.49 | 2:26.19 | 112324 | 123292 14 | 27:23.68 | 1:19.26 | 123293 | 129243 15 | 28:43.19 | 1:46.64 | 129244 | 137257 16 | 30:30.08 | 2:56.39 | 137258 | 150496 17 | 33:26.47 | 1:42.62 | 150497 | 158208 18 | 35:09.34 | 1:38.34 | 158209 | 165592 19 | 36:47.68 | 0:41.25 | 165593 | 168692 20 | 37:29.18 | 1:40.41 | 168693 | 176233 21 | 39:09.59 | 1:25.17 | 176234 | 182625 22 | 40:35.01 | 1:29.10 | 182626 | 189310 23 | 42:04.11 | 3:42.67 | 189311 | 206027 24 | 45:47.03 | 3:26.68 | 206028 | 221545 25 | 49:13.71 | 0:48.73 | 221546 | 225218 26 | 50:02.69 | 0:49.22 | 225219 | 228915 27 | 50:52.16 | 2:50.35 | 228916 | 241700 28 | 53:42.51 | 2:16.73 | 241701 | 251973 29 | 55:59.49 | 2:18.34 | 251974 | 262357 30 | 58:18.08 | 1:46.07 | 262358 | 270314
Range status and errors
Selected range
Filename D:\temp\Music\Marais - Pieces de viole - Book V\Marais - Pieces de viole - Book V - CD2.wav
Peak level 99.9 % Extraction speed 2.7 X Range quality 99.9 % Test CRC AAEE3F0A Copy CRC AAEE3F0A Copy OK
No errors occurred
AccurateRip summary
Track 1 accurately ripped (confidence 1) [97DE29A8] (AR v2)Track 2 accurately ripped (confidence 1) [DCD9A8B8] (AR v2)Track 3 accurately ripped (confidence 1) [6C09F860] (AR v2)Track 4 accurately ripped (confidence 1) [EFE03CFE] (AR v2)Track 5 accurately ripped (confidence 1) [44E7A075] (AR v2)Track 6 accurately ripped (confidence 1) [51170597] (AR v2)Track 7 accurately ripped (confidence 1) [1716E787] (AR v2)Track 8 accurately ripped (confidence 1) [765064BC] (AR v2)Track 9 accurately ripped (confidence 1) [0692A33A] (AR v2)Track 10 accurately ripped (confidence 1) [B6AA0A2E] (AR v2)Track 11 accurately ripped (confidence 1) [4EFE50B7] (AR v2)Track 12 accurately ripped (confidence 1) [BA2F5E38] (AR v2)Track 13 accurately ripped (confidence 1) [91BB8BD2] (AR v2)Track 14 accurately ripped (confidence 1) [F0301086] (AR v2)Track 15 accurately ripped (confidence 1) [1630A0DE] (AR v2)Track 16 accurately ripped (confidence 1) [0B26803B] (AR v2)Track 17 accurately ripped (confidence 1) [61C58385] (AR v2)Track 18 accurately ripped (confidence 1) [C7053F5A] (AR v2)Track 19 accurately ripped (confidence 1) [DA619694] (AR v2)Track 20 accurately ripped (confidence 1) [7E2D649B] (AR v2)Track 21 accurately ripped (confidence 1) [F78D0D7F] (AR v2)Track 22 accurately ripped (confidence 1) [08FCE8A5] (AR v2)Track 23 accurately ripped (confidence 1) [48EC1509] (AR v2)Track 24 accurately ripped (confidence 1) [FDBB4470] (AR v2)Track 25 accurately ripped (confidence 1) [B24C4A2B] (AR v2)Track 26 accurately ripped (confidence 1) [D009410A] (AR v2)Track 27 accurately ripped (confidence 1) [5A7350F0] (AR v2)Track 28 accurately ripped (confidence 1) [D25CACC5] (AR v2)Track 29 accurately ripped (confidence 1) [AE1D2775] (AR v2)Track 30 accurately ripped (confidence 1) [69AB9DE8] (AR v2)
All tracks accurately ripped
End of status report
==== Log checksum 12316467E0918D0766B1DEE8A09EE32FFD1C377BCDD5E574ABF0C34D0D96F1ED ====

Лог создания рипа: CD3

Exact Audio Copy V1.0 beta 3 from 29. August 2011
EAC extraction logfile from 25. June 2014, 17:44
Rainer Zipperling, Pieter-Jan Belder, Ghislaine Wauters / Marais - Pieces de viole - Book V - CD3
Used drive : HL-DT-STDVDRRW GWA-4164B Adapter: 5 ID: 0
Read mode : SecureUtilize accurate stream : YesDefeat audio cache : YesMake use of C2 pointers : No
Read offset correction : 102Overread into Lead-In and Lead-Out : NoFill up missing offset samples with silence : YesDelete leading and trailing silent blocks : NoNull samples used in CRC calculations : YesUsed interface : Native Win32 interface for Win NT & 2000
Used output format : User Defined EncoderSelected bitrate : 896 kBit/sQuality : HighAdd ID3 tag : NoCommand line compressor : C:\Program Files\Exact Audio Copy\FLAC\FLAC.EXEAdditional command line options : -V -8 %source%
TOC of the extracted CD
Track | Start | Length | Start sector | End sector --------------------------------------------------------- 1 | 0:00.00 | 2:35.45 | 0 | 11669 2 | 2:35.45 | 0:41.74 | 11670 | 14818 3 | 3:17.44 | 2:08.37 | 14819 | 24455 4 | 5:26.06 | 3:06.73 | 24456 | 38478 5 | 8:33.04 | 1:43.41 | 38479 | 46244 6 | 10:16.45 | 1:32.01 | 46245 | 53145 7 | 11:48.46 | 0:54.72 | 53146 | 57267 8 | 12:43.43 | 2:29.03 | 57268 | 68445 9 | 15:12.46 | 5:43.31 | 68446 | 94201 10 | 20:56.02 | 2:12.58 | 94202 | 104159 11 | 23:08.60 | 2:44.32 | 104160 | 116491 12 | 25:53.17 | 1:59.13 | 116492 | 125429 13 | 27:52.30 | 1:31.67 | 125430 | 132321 14 | 29:24.22 | 3:10.17 | 132322 | 146588 15 | 32:34.39 | 1:44.29 | 146589 | 154417 16 | 34:18.68 | 1:28.43 | 154418 | 161060 17 | 35:47.36 | 0:57.13 | 161061 | 165348 18 | 36:44.49 | 1:45.37 | 165349 | 173260 19 | 38:30.11 | 2:28.31 | 173261 | 184391 20 | 40:58.42 | 3:11.02 | 184392 | 198718 21 | 44:09.44 | 2:46.00 | 198719 | 211168 22 | 46:55.44 | 1:34.30 | 211169 | 218248 23 | 48:29.74 | 2:26.63 | 218249 | 229261 24 | 50:56.62 | 1:26.02 | 229262 | 235713 25 | 52:22.64 | 2:29.25 | 235714 | 246913 26 | 54:52.14 | 2:31.65 | 246914 | 258303 27 | 57:24.04 | 1:48.51 | 258304 | 266454 28 | 59:12.55 | 2:56.24 | 266455 | 279678
Range status and errors
Selected range
Filename D:\temp\Music\Marais - Pieces de viole - Book V\Marais - Pieces de viole - Book V - CD3.wav
Peak level 100.0 % Extraction speed 2.2 X Range quality 99.9 % Test CRC 5221D2AA Copy CRC 5221D2AA Copy OK
No errors occurred
AccurateRip summary
Track 1 accurately ripped (confidence 1) [013A572A] (AR v2)Track 2 accurately ripped (confidence 1) [A4E00117] (AR v2)Track 3 accurately ripped (confidence 1) [8C2473AB] (AR v2)Track 4 accurately ripped (confidence 1) [7FA22E9C] (AR v2)Track 5 accurately ripped (confidence 1) [08827F50] (AR v2)Track 6 accurately ripped (confidence 1) [24BCC72A] (AR v2)Track 7 accurately ripped (confidence 1) [C91A1135] (AR v2)Track 8 accurately ripped (confidence 1) [30E079B3] (AR v2)Track 9 accurately ripped (confidence 1) [C60414C1] (AR v2)Track 10 accurately ripped (confidence 1) [F53C4099] (AR v2)Track 11 accurately ripped (confidence 1) [5AD814A5] (AR v2)Track 12 accurately ripped (confidence 1) [25A3C128] (AR v2)Track 13 accurately ripped (confidence 1) [3A7E0175] (AR v2)Track 14 accurately ripped (confidence 1) [C67826BC] (AR v2)Track 15 accurately ripped (confidence 1) [3611D3A9] (AR v2)Track 16 accurately ripped (confidence 1) [D45C0AD1] (AR v2)Track 17 accurately ripped (confidence 1) [41B24459] (AR v2)Track 18 accurately ripped (confidence 1) [B0F6229D] (AR v2)Track 19 accurately ripped (confidence 1) [DC7E1814] (AR v2)Track 20 accurately ripped (confidence 1) [72BDACFD] (AR v2)Track 21 accurately ripped (confidence 1) [36A72C72] (AR v2)Track 22 accurately ripped (confidence 1) [52181F54] (AR v2)Track 23 accurately ripped (confidence 1) [69DEB8A2] (AR v2)Track 24 accurately ripped (confidence 1) [6D80F4E1] (AR v2)Track 25 accurately ripped (confidence 1) [B6D0AC0F] (AR v2)Track 26 accurately ripped (confidence 1) [ACB1B8FF] (AR v2)Track 27 accurately ripped (confidence 1) [C896E144] (AR v2)Track 28 accurately ripped (confidence 1) [A86BA3A9] (AR v2)
All tracks accurately ripped
End of status report
==== Log checksum 56BC5FBB71344642D4990336BC51C8178B3861AB161ACB1F7B02FAB59C40DA56 ====

Лог создания рипа: CD4

Exact Audio Copy V1.0 beta 3 from 29. August 2011
EAC extraction logfile from 25. June 2014, 18:35
Rainer Zipperling, Pieter-Jan Belder, Ghislaine Wauters / Marais - Pieces de viole - Book V - CD4
Used drive : HL-DT-STDVDRRW GWA-4164B Adapter: 5 ID: 0
Read mode : SecureUtilize accurate stream : YesDefeat audio cache : YesMake use of C2 pointers : No
Read offset correction : 102Overread into Lead-In and Lead-Out : NoFill up missing offset samples with silence : YesDelete leading and trailing silent blocks : NoNull samples used in CRC calculations : YesUsed interface : Native Win32 interface for Win NT & 2000
Used output format : User Defined EncoderSelected bitrate : 896 kBit/sQuality : HighAdd ID3 tag : NoCommand line compressor : C:\Program Files\Exact Audio Copy\FLAC\FLAC.EXEAdditional command line options : -V -8 %source%
TOC of the extracted CD
Track | Start | Length | Start sector | End sector --------------------------------------------------------- 1 | 0:00.00 | 2:18.42 | 0 | 10391 2 | 2:18.42 | 2:11.64 | 10392 | 20280 3 | 4:30.31 | 1:22.25 | 20281 | 26455 4 | 5:52.56 | 1:47.54 | 26456 | 34534 5 | 7:40.35 | 1:42.36 | 34535 | 42220 6 | 9:22.71 | 1:31.51 | 42221 | 49096 7 | 10:54.47 | 2:49.40 | 49097 | 61811 8 | 13:44.12 | 0:39.52 | 61812 | 64788 9 | 14:23.64 | 0:52.15 | 64789 | 68703 10 | 15:16.04 | 4:01.40 | 68704 | 86818 11 | 19:17.44 | 2:08.19 | 86819 | 96437 12 | 21:25.63 | 3:11.58 | 96438 | 110820 13 | 24:37.46 | 1:58.31 | 110821 | 119701 14 | 26:36.02 | 1:47.14 | 119702 | 127740 15 | 28:23.16 | 1:49.09 | 127741 | 135924 16 | 30:12.25 | 1:36.36 | 135925 | 143160 17 | 31:48.61 | 3:21.12 | 143161 | 158247 18 | 35:09.73 | 1:41.33 | 158248 | 165855 19 | 36:51.31 | 1:20.69 | 165856 | 171924 20 | 38:12.25 | 1:17.47 | 171925 | 177746 21 | 39:29.72 | 6:36.19 | 177747 | 207465 22 | 46:06.16 | 3:36.69 | 207466 | 223734 23 | 49:43.10 | 1:33.06 | 223735 | 230715 24 | 51:16.16 | 1:40.17 | 230716 | 238232
Range status and errors
Selected range
Filename D:\temp\Music\Marais - Pieces de viole - Book V\Marais - Pieces de viole - Book V - CD4.wav
Peak level 100.0 % Extraction speed 2.6 X Range quality 100.0 % Test CRC 74C57A04 Copy CRC 74C57A04 Copy OK
No errors occurred
AccurateRip summary
Track 1 accurately ripped (confidence 1) [C0012E6C] (AR v2)Track 2 accurately ripped (confidence 1) [F85DEE50] (AR v2)Track 3 accurately ripped (confidence 1) [3BDFFE55] (AR v2)Track 4 accurately ripped (confidence 1) [CFF50570] (AR v2)Track 5 accurately ripped (confidence 1) [30751DCB] (AR v2)Track 6 accurately ripped (confidence 1) [036D7281] (AR v2)Track 7 accurately ripped (confidence 1) [600664A6] (AR v2)Track 8 accurately ripped (confidence 1) [65632293] (AR v2)Track 9 accurately ripped (confidence 1) [771EDFED] (AR v2)Track 10 accurately ripped (confidence 1) [A2D46F76] (AR v2)Track 11 accurately ripped (confidence 1) [A177C37A] (AR v2)Track 12 accurately ripped (confidence 1) [F8C46C0C] (AR v2)Track 13 accurately ripped (confidence 1) [41840FD6] (AR v2)Track 14 accurately ripped (confidence 1) [C45061E7] (AR v2)Track 15 accurately ripped (confidence 1) [D100D66B] (AR v2)Track 16 accurately ripped (confidence 1) [8C388285] (AR v2)Track 17 accurately ripped (confidence 1) [7DD67B2F] (AR v2)Track 18 accurately ripped (confidence 1) [368466B0] (AR v2)Track 19 accurately ripped (confidence 1) [0717D80B] (AR v2)Track 20 accurately ripped (confidence 1) [4D7E0569] (AR v2)Track 21 accurately ripped (confidence 1) [371C823C] (AR v2)Track 22 accurately ripped (confidence 1) [9374BE9E] (AR v2)Track 23 accurately ripped (confidence 1) [4892FD14] (AR v2)Track 24 accurately ripped (confidence 1) [ED295A4B] (AR v2)
All tracks accurately ripped
End of status report
==== Log checksum 3D8CB8507560789CCD522506FC75DD10A137923AD53E50A7AEC0879265E72F91 ====



Показать сообщения:    

Текущее время: 10-Дек 10:00

Часовой пояс: UTC + 3


Вы не можете начинать темы
Вы не можете отвечать на сообщения
Вы не можете редактировать свои сообщения
Вы не можете удалять свои сообщения
Вы не можете голосовать в опросах
Вы не можете прикреплять файлы к сообщениям
Вы не можете скачивать файлы