(Baroque pieces de viole) Antoine Forqueray - Pieces de Viole avec la Basse Continue [2CD] (Paolo Pandolfo) - 2001, FLAC (image+.cue) lossless


 

[Цитировать]

Forqueray - Pieces de Viole avec la Basse Continuë. Integral

Жанр: Baroque pieces de viole
Страна-производитель диска: Made in the EEC
Год издания диска: 2001
Издатель (лейбл): Glossa
Номер по каталогу: GCD 920401
Дата записи: 1994-1995
Аудиокодек: FLAC
Тип рипа: image+.cue
Битрейт аудио: lossless
Продолжительность: 75'30 , 71'05
Источник: релизер
сайт-источник/ник/другое: Saoshya and Meeting in Music blogspot
Наличие сканов в содержимом раздачи: да
Треклист:

скрытый текст

CDI
1. 1re suite, Allemande. La La Borde
2. La Forqueray
3. La Cottin
4. La Bellemont
5. La Portugaise
6. La Couperin
7. 2re suite, La Bouron
8. La Mandoline
9. La Dubreüil
10. La Leclair
11. Chaconne. La Buisson
12. 4re suite, La Marella
13. La Clement
14. Sarabande. La D'aubonne
15. La Bournonville
16. La Sainsey
17. Le Carillon de Passy
18. La Latour
19. Le Carillon de Passy
CDII
1. 3re suite, La Ferrand
2. La Regente
3. La Tronchin
4. La Angrave
5. La Du Vaucel
6. La Eynaud
7. Chaconne. La Morangis ou La Plissay
8. 5re suite, La Rameau
9. La Guignon
10. La Léon. Sarabande
11. La Boisson
12. La Montigni
13. La Silva
14. Jupiter
Исполнители:

скрытый текст

Antoine Forqueray
Pieces de Viole avec la Basse Continuë. Integral
Paolo Pandolfo - viole
Eduardo Eguez
Rolf Lislevand
Guido Morini
Guido Balestracci

Лог создания рипа

CD1

скрытый текст

Exact Audio Copy V0.99 prebeta 4 from 23. January 2008
EAC extraction logfile from 25. September 2014, 7:33
Paolo Pandolfo, Guido Balestracci, Guido Morini, Rolf Lislevand, Eduardo Egüez / Antoine Forqueray - Pieces de Viole avec la Basse Continuë CD1
Used drive : SONY DVD-ROM DDU1615 Adapter: 0 ID: 0
Read mode : Secure
Utilize accurate stream : Yes
Defeat audio cache : Yes
Make use of C2 pointers : No
Read offset correction : 6
Overread into Lead-In and Lead-Out : No
Fill up missing offset samples with silence : Yes
Delete leading and trailing silent blocks : No
Null samples used in CRC calculations : Yes
Used interface : Native Win32 interface for Win NT & 2000
Used output format : User Defined Encoder
Selected bitrate : 1024 kBit/s
Quality : High
Add ID3 tag : No
Command line compressor : C:\Program Files\REACT\REACT.exe
Additional command line options : REACT %o %s %d "%a" "%g" "%t" "%n" "%x" "%y" "%m" "%e" "%f" "%b" %r
TOC of the extracted CD
Track | Start | Length | Start sector | End sector
---------------------------------------------------------
1 | 0:00.00 | 6:24.69 | 0 | 28868
2 | 6:24.69 | 2:16.38 | 28869 | 39106
3 | 8:41.32 | 2:47.73 | 39107 | 51704
4 | 11:29.30 | 4:22.47 | 51705 | 71401
5 | 15:52.02 | 4:31.40 | 71402 | 91766
6 | 20:23.42 | 5:26.70 | 91767 | 116286
7 | 25:50.37 | 3:07.23 | 116287 | 130334
8 | 28:57.60 | 3:33.32 | 130335 | 146341
9 | 32:31.17 | 4:02.63 | 146342 | 164554
10 | 36:34.05 | 2:50.17 | 164555 | 177321
11 | 39:24.22 | 5:28.48 | 177322 | 201969
12 | 44:52.70 | 3:20.22 | 201970 | 216991
13 | 48:13.17 | 6:13.35 | 216992 | 245001
14 | 54:26.52 | 4:16.18 | 245002 | 264219
15 | 58:42.70 | 1:56.12 | 264220 | 272931
16 | 60:39.07 | 3:50.23 | 272932 | 290204
17 | 64:29.30 | 4:41.42 | 290205 | 311321
18 | 69:10.72 | 3:16.25 | 311322 | 326046
19 | 72:27.22 | 3:03.05 | 326047 | 339776
Range status and errors
Selected range
Filename L:\Ripped by Saoshya\Glossa GCD920401 Antoine Forqueray - Pieces de Viole avec la Basse Continue (Paolo Pandolfo, et al.)\CDImage 1\A Forqueray - Pieces de Viole avec la Basse Continue - Paolo Pandolfo CD1.wav
Peak level 84.9 %
Range quality 99.9 %
Test CRC 03A7E503
Copy CRC 03A7E503
Copy OK
No errors occurred
AccurateRip summary
Track 1 accurately ripped (confidence 6) [C5A4ABF7]
Track 2 accurately ripped (confidence 6) [36C1CFB3]
Track 3 accurately ripped (confidence 4) [614B2F12]
Track 4 accurately ripped (confidence 4) [F7876782]
Track 5 accurately ripped (confidence 5) [0E8004E7]
Track 6 accurately ripped (confidence 5) [76B0E6D7]
Track 7 accurately ripped (confidence 5) [681638BB]
Track 8 accurately ripped (confidence 5) [184C3E98]
Track 9 accurately ripped (confidence 5) [2DCCD855]
Track 10 accurately ripped (confidence 5) [DF768342]
Track 11 accurately ripped (confidence 5) [0E728D6E]
Track 12 accurately ripped (confidence 5) [D3DA0CF1]
Track 13 accurately ripped (confidence 5) [E14FF82C]
Track 14 accurately ripped (confidence 5) [2A175D53]
Track 15 accurately ripped (confidence 5) [B97D45AF]
Track 16 accurately ripped (confidence 5) [BE46B4DD]
Track 17 accurately ripped (confidence 5) [48F9772C]
Track 18 accurately ripped (confidence 5) [824783E8]
Track 19 accurately ripped (confidence 5) [02C46F65]
All tracks accurately ripped
End of status report
CD2

скрытый текст

Exact Audio Copy V0.99 prebeta 4 from 23. January 2008
EAC extraction logfile from 25. September 2014, 8:08
Paolo Pandolfo, Guido Balestracci, Guido Morini, Rolf Lislevand, Eduardo Egüez / Antoine Forqueray - Pieces de Viole avec la Basse Continuë CD2
Used drive : SONY DVD-ROM DDU1615 Adapter: 0 ID: 0
Read mode : Secure
Utilize accurate stream : Yes
Defeat audio cache : Yes
Make use of C2 pointers : No
Read offset correction : 6
Overread into Lead-In and Lead-Out : No
Fill up missing offset samples with silence : Yes
Delete leading and trailing silent blocks : No
Null samples used in CRC calculations : Yes
Used interface : Native Win32 interface for Win NT & 2000
Used output format : User Defined Encoder
Selected bitrate : 1024 kBit/s
Quality : High
Add ID3 tag : No
Command line compressor : C:\Program Files\REACT\REACT.exe
Additional command line options : REACT %o %s %d "%a" "%g" "%t" "%n" "%x" "%y" "%m" "%e" "%f" "%b" %r
TOC of the extracted CD
Track | Start | Length | Start sector | End sector
---------------------------------------------------------
1 | 0:00.00 | 6:09.22 | 0 | 27696
2 | 6:09.22 | 6:31.18 | 27697 | 57039
3 | 12:40.40 | 4:08.72 | 57040 | 75711
4 | 16:49.37 | 2:53.73 | 75712 | 88759
5 | 19:43.35 | 4:13.00 | 88760 | 107734
6 | 23:56.35 | 3:42.62 | 107735 | 124446
7 | 27:39.22 | 7:57.00 | 124447 | 160221
8 | 35:36.22 | 4:43.25 | 160222 | 181471
9 | 40:19.47 | 4:00.25 | 181472 | 199496
10 | 44:19.72 | 4:08.38 | 199497 | 218134
11 | 48:28.35 | 4:11.45 | 218135 | 237004
12 | 52:40.05 | 6:25.32 | 237005 | 265911
13 | 59:05.37 | 4:13.63 | 265912 | 284949
14 | 63:19.25 | 7:46.55 | 284950 | 319954
Range status and errors
Selected range
Filename L:\Ripped by Saoshya\Glossa GCD920401 Antoine Forqueray - Pieces de Viole avec la Basse Continue (Paolo Pandolfo, et al.)\CDImage 2\A Forqueray - Pieces de Viole avec la Basse Continue - Paolo Pandolfo CD2.wav
Peak level 93.2 %
Range quality 100.0 %
Test CRC 721B5BEF
Copy CRC 721B5BEF
Copy OK
No errors occurred
AccurateRip summary
Track 1 accurately ripped (confidence 5) [ADD09B05]
Track 2 accurately ripped (confidence 5) [189B9B8A]
Track 3 accurately ripped (confidence 5) [E264E53C]
Track 4 accurately ripped (confidence 4) [41109A67]
Track 5 accurately ripped (confidence 5) [45A4DE23]
Track 6 accurately ripped (confidence 5) [153F80F5]
Track 7 accurately ripped (confidence 5) [9649C5B8]
Track 8 accurately ripped (confidence 5) [C5749022]
Track 9 accurately ripped (confidence 5) [C5D12949]
Track 10 accurately ripped (confidence 5) [C84D41E5]
Track 11 accurately ripped (confidence 5) [50FFA10D]
Track 12 accurately ripped (confidence 5) [EA44EF7D]
Track 13 accurately ripped (confidence 5) [3E7642FA]
Track 14 accurately ripped (confidence 5) [F2C06394]
All tracks accurately ripped
End of status report



Показать сообщения:    

Текущее время: 07-Дек 15:33

Часовой пояс: UTC + 3


Вы не можете начинать темы
Вы не можете отвечать на сообщения
Вы не можете редактировать свои сообщения
Вы не можете удалять свои сообщения
Вы не можете голосовать в опросах
Вы не можете прикреплять файлы к сообщениям
Вы не можете скачивать файлы