(French baroque viole) Corrette - Les delices de la solitude (Les Voix humaines) - 2006, FLAC (image+.cue) lossless


 

[Цитировать]

Corrette - Les delices de la solitude (Les Voix humaines)

Жанр: French baroque viole
Страна-производитель диска: Made in Canada
Год издания диска: 2006
Издатель (лейбл): ATMA Classique
Номер по каталогу: ACD2 2307
Дата записи: 2006
Аудиокодек: FLAC
Тип рипа: image+.cue
Битрейт аудио: lossless
Продолжительность: 73'50
Источник: релизер
сайт-источник/ник/другое: Saoshya and Meeting in Music blogspot
Наличие сканов в содержимом раздачи: да
Треклист:

скрытый текст

01. Sonata V en sol majeur - Preludio (presto) 00:28
02. Allemanda (allegro) 03:23
03. Sarabanda 03:30
04. Presto 02:38
05. Sonata VI en ré majeur - Allegro moderato 05:54
06. Aria (affettuoso) 05:13
07. Giga (allegro) 02:00
08. Sonata IV en si bémol majeur - Adagio 02:23
09. Corrente 03:09
10. Aria (affettuoso) 02:38
11. Bruits de chasse 02:10
12. Sonata II en ré mineur - Allegro 04:05
13. Arias I et II 04:44
14. Allegro 03:14
15. Sonata III en do majeur - Allegro 04:19
16. Sarabanda 01:50
17. Fuga da cappella 02:15
18. Sonata I en fa majeur - Fuga (allegro) 02:14
19. Aria (affettuoso) 04:12
20. Allegro 02:20
21. Le Phénix en ré majeur - Allegro 02:59
22. Adagio 03:22
23. Allegro 04:37
Исполнители:

скрытый текст

Michel Corrette (1707-1795)
Les Delices de la solitude
Les Voix humaines
Audio CD (May 30, 2006)

Лог создания рипа

Exact Audio Copy V0.99 prebeta 4 from 23. January 2008
EAC extraction logfile from 13. September 2014, 10:47
Les Voix humaines / Michel Corrette - Les Délices de la solitude
Used drive : SONY DVD-ROM DDU1615 Adapter: 0 ID: 0
Read mode : SecureUtilize accurate stream : YesDefeat audio cache : YesMake use of C2 pointers : No
Read offset correction : 6Overread into Lead-In and Lead-Out : NoFill up missing offset samples with silence : YesDelete leading and trailing silent blocks : NoNull samples used in CRC calculations : YesUsed interface : Native Win32 interface for Win NT & 2000
Used output format : User Defined EncoderSelected bitrate : 1024 kBit/sQuality : HighAdd ID3 tag : NoCommand line compressor : C:\Program Files\REACT\REACT.exeAdditional command line options : REACT %o %s %d "%a" "%g" "%t" "%n" "%x" "%y" "%m" "%e" "%f" "%b" %r
TOC of the extracted CD
Track | Start | Length | Start sector | End sector --------------------------------------------------------- 1 | 0:00.00 | 0:28.34 | 0 | 2133 2 | 0:28.34 | 3:23.03 | 2134 | 17361 3 | 3:51.37 | 3:30.13 | 17362 | 33124 4 | 7:21.50 | 2:38.55 | 33125 | 45029 5 | 10:00.30 | 5:54.49 | 45030 | 71628 6 | 15:55.04 | 5:13.62 | 71629 | 95165 7 | 21:08.66 | 2:00.23 | 95166 | 104188 8 | 23:09.14 | 2:23.24 | 104189 | 114937 9 | 25:32.38 | 3:09.09 | 114938 | 129121 10 | 28:41.47 | 2:38.74 | 129122 | 141045 11 | 31:20.46 | 2:10.44 | 141046 | 150839 12 | 33:31.15 | 4:05.29 | 150840 | 169243 13 | 37:36.44 | 4:44.42 | 169244 | 190585 14 | 42:21.11 | 3:14.70 | 190586 | 205205 15 | 45:36.06 | 4:19.29 | 205206 | 224659 16 | 49:55.35 | 1:50.27 | 224660 | 232936 17 | 51:45.62 | 2:15.67 | 232937 | 243128 18 | 54:01.54 | 2:14.70 | 243129 | 253248 19 | 56:16.49 | 4:12.65 | 253249 | 272213 20 | 60:29.39 | 2:20.03 | 272214 | 282716 21 | 62:49.42 | 2:59.46 | 282717 | 296187 22 | 65:49.13 | 3:22.28 | 296188 | 311365 23 | 69:11.41 | 4:37.44 | 311366 | 332184
Range status and errors
Selected range
Filename L:\Ripped by Saoshya\Atma ACD22307 Michel Corrette - Les Delices de la solitude (Les Voix humaines)\CDImage\Corrette - Les Delices de la solitude - Les Voix humaines.wav
Peak level 100.0 % Range quality 99.9 % Test CRC B0E32DDF Copy CRC B0E32DDF Copy OK
No errors occurred
AccurateRip summary
Track 1 accurately ripped (confidence 4) [40C33772]Track 2 accurately ripped (confidence 4) [158D1601]Track 3 accurately ripped (confidence 4) [DB963C95]Track 4 accurately ripped (confidence 4) [98116966]Track 5 accurately ripped (confidence 4) [D9E05AE1]Track 6 accurately ripped (confidence 4) [6C977A9B]Track 7 accurately ripped (confidence 4) [D9BFF90B]Track 8 accurately ripped (confidence 4) [6CD54B0E]Track 9 accurately ripped (confidence 4) [1866D5C3]Track 10 accurately ripped (confidence 4) [11D52AB6]Track 11 accurately ripped (confidence 4) [0781B4F4]Track 12 accurately ripped (confidence 4) [BBFE2FEB]Track 13 accurately ripped (confidence 4) [38306183]Track 14 accurately ripped (confidence 4) [D8C28B51]Track 15 accurately ripped (confidence 4) [5F8D3691]Track 16 accurately ripped (confidence 4) [6E9435AC]Track 17 accurately ripped (confidence 4) [2CB4752B]Track 18 accurately ripped (confidence 4) [A54E67AE]Track 19 accurately ripped (confidence 4) [9462CCD2]Track 20 accurately ripped (confidence 4) [358E16D3]Track 21 accurately ripped (confidence 3) [B5CFB3CF]Track 22 accurately ripped (confidence 3) [4B6B692B]Track 23 accurately ripped (confidence 1) [A8EF4A71]
All tracks accurately ripped
End of status report



Показать сообщения:    

Текущее время: 08-Дек 12:53

Часовой пояс: UTC + 3


Вы не можете начинать темы
Вы не можете отвечать на сообщения
Вы не можете редактировать свои сообщения
Вы не можете удалять свои сообщения
Вы не можете голосовать в опросах
Вы не можете прикреплять файлы к сообщениям
Вы не можете скачивать файлы