(Classical, period) Онсло – Виолончельные сонаты / Onslow – Cello Sonatas, Op. 16 (Emmanuel Jacques & Maude Gratton) - 2014, FLAC (image+.cue) lossless


 

[Цитировать]

Онсло – Виолончельные сонаты / Onslow – Cello Sonatas, Op. 16 (Emmanuel Jacques & Maude Gratton)
Жанр: Classical, period instruments
Страна-производитель диска: Австрия
Год издания диска: 2014
Издатель (лейбл): MIRARE
Номер по каталогу: MIR 192
Дата записи: июнь 2012 г., Вильфавар.
Аудиокодек: FLAC
Тип рипа: image+.cue
Битрейт аудио: lossless
Продолжительность: 01:02:46
Источник: odeonmusic
Наличие сканов в содержимом раздачи: да
Треклист:
Андре Жорж Луи Онсло (1784 — 1853).
Три сонаты для фортепиано и виолончели, op. 16 (опубл. 1820).
Соната № 2 c-moll.
01. I. Allegro espressivo [09:16].
02. II. Menuetto. Allegro. — Trio. — Menuetto da capo. [05:34].
03. III. Adagio cantabile [05:27].
04. IV. Finale. Allegretto [05:24].
Соната № 1 F-dur.
05. I. Allegro [08:16].
06. II. Andante [06:29].
07. III. Finale. Allegretto [06:02].
Соната № 3 A-dur.
08. I. Allegro vivace [05:47].
09. II. Adagio. — [02:59].
10. III. Finale. Agitato. Molto espressivo [07:33].
Исполнители:
Emmanuel Jacques (виолончель, 1726),
Maude Gratton (фортепиано, 1822).

Лог создания рипа

Exact Audio Copy V1.0 beta 3 from 29. August 2011
EAC extraction logfile from 25. September 2014, 22:28
Emanuel Jacques / George Onslow - Sonates pour Violoncelle et Piano - Emanuel Jacques
Used drive : TSSTcorpCDDVDW SH-222BB Adapter: 2 ID: 1
Read mode : SecureUtilize accurate stream : YesDefeat audio cache : YesMake use of C2 pointers : No
Read offset correction : 6Overread into Lead-In and Lead-Out : NoFill up missing offset samples with silence : YesDelete leading and trailing silent blocks : NoNull samples used in CRC calculations : YesUsed interface : Native Win32 interface for Win NT & 2000
Used output format : User Defined EncoderSelected bitrate : 896 kBit/sQuality : HighAdd ID3 tag : NoCommand line compressor : C:\Program Files\Exact Audio Copy\FLAC\FLAC.EXEAdditional command line options : -8 -V -T "TITLE=%title%" -T "ARTIST=%artist%" -T "ALBUMARTIST=%albumartist%" -T "ALBUM=%albumtitle%" -T "DATE=%year%" -T "TRACKNUMBER=%tracknr%" -T "TRACKTOTAL=%numtracks%" -T "GENRE=%genre%" -T "COMMENT=%comment%" -T "PERFORMER=%albuminterpret%" -T "COMPOSER=%composer%" %source% -o %dest%
TOC of the extracted CD
Track | Start | Length | Start sector | End sector --------------------------------------------------------- 1 | 0:00.00 | 9:16.30 | 0 | 41729 2 | 9:16.30 | 5:33.50 | 41730 | 66754 3 | 14:50.05 | 5:27.28 | 66755 | 91307 4 | 20:17.33 | 5:24.18 | 91308 | 115625 5 | 25:41.51 | 8:15.47 | 115626 | 152797 6 | 33:57.23 | 6:28.39 | 152798 | 181936 7 | 40:25.62 | 6:01.72 | 181937 | 209083 8 | 46:27.59 | 5:46.39 | 209084 | 235072 9 | 52:14.23 | 2:58.69 | 235073 | 248491 10 | 55:13.17 | 7:32.41 | 248492 | 282432
Range status and errors
Selected range
Filename G:\Ripped general\[7768] George Onslow – Sonates pour Violoncelle et Piano – Emanuel Jacques\George Onslow - Sonates pour Violoncelle et Piano - Emanuel Jacques.wav
Peak level 97.7 % Extraction speed 6.6 X Range quality 100.0 % Test CRC 7D0B4FD3 Copy CRC 7D0B4FD3 Copy OK
No errors occurred
AccurateRip summary
Track 1 not present in databaseTrack 2 not present in databaseTrack 3 not present in databaseTrack 4 not present in databaseTrack 5 not present in databaseTrack 6 not present in databaseTrack 7 not present in databaseTrack 8 not present in databaseTrack 9 not present in databaseTrack 10 not present in database
None of the tracks are present in the AccurateRip database
End of status report
==== Log checksum 9767F67734608BBA036AB622D24F9EAA0F6D7B61C727E839802E13D88450B016 ====

Содержание индексной карты (.CUE)

REM GENRE ClassicalREM DISCID 910EB50AREM COMMENT "ExactAudioCopy v1.0b3"PERFORMER "Emmanuel Jacques & Maude Gratton"TITLE "George Onslow – Sonates pour violoncelle et piano – Emmanuel Jacques"FILE "George Onslow – Sonates pour violoncelle et piano – Emmanuel Jacques.flac" WAVE TRACK 01 AUDIO TITLE "Three Sonatas for piano & cello, Op. 16 - No. 2 in C minor - I. Allegro espressivo" PERFORMER "Emmanuel Jacques & Maude Gratton" ISRC FRU621219201 INDEX 01 00:00:00 TRACK 02 AUDIO TITLE "Three Sonatas for piano & cello, Op. 16 - No. 2 in C minor - II. Menuetto. Allegro" PERFORMER "Emmanuel Jacques & Maude Gratton" ISRC FRU621219202 INDEX 01 09:16:30 TRACK 03 AUDIO TITLE "Three Sonatas for piano & cello, Op. 16 - No. 2 in C minor - III. Adagio cantabile" PERFORMER "Emmanuel Jacques & Maude Gratton" ISRC FRU621219203 INDEX 01 14:50:05 TRACK 04 AUDIO TITLE "Three Sonatas for piano & cello, Op. 16 - No. 2 in C minor - IV. Finale. Allegretto" PERFORMER "Emmanuel Jacques & Maude Gratton" ISRC FRU621219204 INDEX 01 20:17:33 TRACK 05 AUDIO TITLE "Three Sonatas for piano & cello, Op. 16 - No. 1 in F major - I. Allegro" PERFORMER "Emmanuel Jacques & Maude Gratton" ISRC FRU621219205 INDEX 00 25:37:55 INDEX 01 25:41:51 TRACK 06 AUDIO TITLE "Three Sonatas for piano & cello, Op. 16 - No. 1 in F major - II. Andante" PERFORMER "Emmanuel Jacques & Maude Gratton" ISRC FRU621219206 INDEX 01 33:57:23 TRACK 07 AUDIO TITLE "Three Sonatas for piano & cello, Op. 16 - No. 1 in F major - III. Finale. Allegretto" PERFORMER "Emmanuel Jacques & Maude Gratton" ISRC FRU621219207 INDEX 01 40:25:62 TRACK 08 AUDIO TITLE "Three Sonatas for piano & cello, Op. 16 - No. 3 in A major - I. Allegro vivace" PERFORMER "Emmanuel Jacques & Maude Gratton" ISRC FRU621219208 INDEX 00 46:23:13 INDEX 01 46:27:59 TRACK 09 AUDIO TITLE "Three Sonatas for piano & cello, Op. 16 - No. 3 in A major - II. Adagio" PERFORMER "Emmanuel Jacques & Maude Gratton" ISRC FRU621219209 INDEX 01 52:14:23 TRACK 10 AUDIO TITLE "Three Sonatas for piano & cello, Op. 16 - No. 3 in A major - III. Finale. Agitato. Molto espressivo" PERFORMER "Emmanuel Jacques & Maude Gratton" ISRC FRU621219210 INDEX 01 55:13:17

Вариант индексной карты (.CUE) с выставленными зазорами

REM GENRE ClassicalREM DISCID 910EB50AREM COMMENT "ExactAudioCopy v1.0b3"PERFORMER "Emmanuel Jacques & Maude Gratton"TITLE "George Onslow – Sonates pour violoncelle et piano – Emmanuel Jacques"FILE "George Onslow – Sonates pour violoncelle et piano – Emmanuel Jacques.flac" WAVE TRACK 01 AUDIO TITLE "Three Sonatas for piano & cello, Op. 16 - No. 2 in C minor - I. Allegro espressivo" PERFORMER "Emmanuel Jacques & Maude Gratton" ISRC FRU621219201 INDEX 00 00:00:00 INDEX 01 00:01:74 TRACK 02 AUDIO TITLE "Three Sonatas for piano & cello, Op. 16 - No. 2 in C minor - II. Menuetto. Allegro" PERFORMER "Emmanuel Jacques & Maude Gratton" ISRC FRU621219202 INDEX 00 09:14:17 INDEX 01 09:17:54 TRACK 03 AUDIO TITLE "Three Sonatas for piano & cello, Op. 16 - No. 2 in C minor - III. Adagio cantabile" PERFORMER "Emmanuel Jacques & Maude Gratton" ISRC FRU621219203 INDEX 00 14:48:65 INDEX 01 14:51:08 TRACK 04 AUDIO TITLE "Three Sonatas for piano & cello, Op. 16 - No. 2 in C minor - IV. Finale. Allegretto" PERFORMER "Emmanuel Jacques & Maude Gratton" ISRC FRU621219204 INDEX 01 20:18:38 TRACK 05 AUDIO TITLE "Three Sonatas for piano & cello, Op. 16 - No. 1 in F major - I. Allegro" PERFORMER "Emmanuel Jacques & Maude Gratton" ISRC FRU621219205 INDEX 00 25:37:55 INDEX 01 25:42:45 TRACK 06 AUDIO TITLE "Three Sonatas for piano & cello, Op. 16 - No. 1 in F major - II. Andante" PERFORMER "Emmanuel Jacques & Maude Gratton" ISRC FRU621219206 INDEX 00 33:55:70 INDEX 01 33:58:16 TRACK 07 AUDIO TITLE "Three Sonatas for piano & cello, Op. 16 - No. 1 in F major - III. Finale. Allegretto" PERFORMER "Emmanuel Jacques & Maude Gratton" ISRC FRU621219207 INDEX 00 40:25:10 INDEX 01 40:26:38 TRACK 08 AUDIO TITLE "Three Sonatas for piano & cello, Op. 16 - No. 3 in A major - I. Allegro vivace" PERFORMER "Emmanuel Jacques & Maude Gratton" ISRC FRU621219208 INDEX 00 46:21:33 INDEX 01 46:28:41 TRACK 09 AUDIO TITLE "Three Sonatas for piano & cello, Op. 16 - No. 3 in A major - II. Adagio" PERFORMER "Emmanuel Jacques & Maude Gratton" ISRC FRU621219209 INDEX 00 52:12:69 INDEX 01 52:15:26 TRACK 10 AUDIO TITLE "Three Sonatas for piano & cello, Op. 16 - No. 3 in A major - III. Finale. Agitato. Molto espressivo" PERFORMER "Emmanuel Jacques & Maude Gratton" ISRC FRU621219210 INDEX 01 55:13:17 INDEX 02 62:40:11
-Жорж Онсло. Виолончельные сонаты.
Все три сонаты (Maria Kliegel, Nina Tichman).
Сонаты № 2 и 3 (Jean-Marie Trotereau, Laurent Martin). Этот же пианист записал диск фортепианных сочинений Онсло.



Показать сообщения:    

Текущее время: 04-Дек 13:15

Часовой пояс: UTC + 3


Вы не можете начинать темы
Вы не можете отвечать на сообщения
Вы не можете редактировать свои сообщения
Вы не можете удалять свои сообщения
Вы не можете голосовать в опросах
Вы не можете прикреплять файлы к сообщениям
Вы не можете скачивать файлы