(Classical) [WEB] The Stolz Quartet: Dutch Masters and their Inspiration (Maurice Ravel, Robert Zuidam, Klaas de Vries, Einar Torfi Einarsson, Александр Скрябин, Theo Verbey) - 2014, FLAC (tracks), lossless


 

[Цитировать]

The Stolz Quartet
Dutch Masters and their Inspiration
- Жанр: Classical
Год издания диска: 2014
Издатель (лейбл): Challenge Classics
Аудиокодек: FLAC
Тип рипа: tracks
Битрейт аудио: lossless
Продолжительность: 00:54:06
Наличие сканов: Front- -The Stolz Quartet:
Marieke Schut - oboe
Liesbeth Steffens - viola
Doris Hochscheid - cello
Jellantsje de Vries - violin
-Треклист-Maurice Ravel
Tombeau de Couperin, M.68a
01. I. Prelude (3:17)
02. II. Forlane (5:50)
03. III. Fugue (3:45)
04. IV. Menuet (4:22)
05. V. Rigaudon (3:16)
Robert Zuidam
A Love Unsung
06. Excerpt (6:10)
Klaas de Vries
07. Haikus (4:25)
Gerrie de Vries (Voice)
Einar Torfi Einarsson
Desiring-Machines
08. Partial-object 0.1667 (4:09)
Александр Скрябин
Preludes, Op. 33
09. Prelude no 1 in E major (1:05)
10. Prelude no 2 in F sharp major (1:20)
11. Prelude no 3 in C major (0:30)
12. Prelude no 4 in A flat major (0:50)
Théo Verbey
Preludes to Infinity
13. I. Mysterious (2:33)
14. II. Restless (3:07)
15. III. Religious (3:00)
16. IV. Luminous (3:46)
Franz Liszt
Via Crucis, Station IV, S.53
17. Jesu begegnet seiner heiligen Mutter (2:42)
-

ОтчётыЛог проверки качества

-----------------------
DON'T MODIFY THIS FILE
-----------------------
PERFORMER: auCDtect Task Manager, ver. 1.6.0 RC1 build 1.6.0.1Copyright (c) 2008-2010 y-soft. All rights reservedhttp://y-soft.org
ANALYZER: auCDtect: CD records authenticity detector, version 0.8.2Copyright (c) 2004 Oleg Berngardt. All rights reserved.Copyright (c) 2004 Alexander Djourik. All rights reserved.
FILE: 17 Franz Liszt - Via Crucis, Station IV, S.53 - Jesu begegnet seiner heiligen Mutter.flac Size: 11994419 Hash: ED3F7087D0261EADA4FF12BA4744960A Accuracy: -m0 Conclusion: MPEG 90% Signature: 6186121575DFB3E07C3033245B7B340AABFC8450FILE: 16 Theo Verbey - Preludes to Infinity - IV. Luminous.flac Size: 18340212 Hash: 94EB5211381F67AF0795BC0C4CCC1B07 Accuracy: -m0 Conclusion: CDDA 43% Signature: B4B2FDD1D5DCE618CA1E854EE12E245124BECB3AFILE: 15 Theo Verbey - Preludes to Infinity - III. Religious.flac Size: 13948152 Hash: E72B0118686437BC0E4BD69754B204C9 Accuracy: -m0 Conclusion: MPEG 90% Signature: 8E0593DABD5C2744AF33BF83F7CDB2841BBCD83DFILE: 14 Theo Verbey - Preludes to Infinity - II. Restless.flac Size: 15631068 Hash: E7A24451B254C721B130088CEDD3FB36 Accuracy: -m0 Conclusion: CDDA 58% Signature: EB2595B7073E157A701435D24312FF61DC4FBEE6FILE: 13 Theo Verbey - Preludes to Infinity - I. Mysterious.flac Size: 10916723 Hash: 27A2FD487ADF23F921ACAAE59B96BE0E Accuracy: -m0 Conclusion: MPEG 93% Signature: 2949511F28C66F9792C7353374D67343685C0A2FFILE: 12 Alexander Skrjabin - Preludes, Op. 33 - IV..flac Size: 3984727 Hash: 7999D48DA0DAD6C4CCC50EB9BBA2443D Accuracy: -m0 Conclusion: CDDA 100% Signature: 155E23B148028C7F019526BEF4A3E7F0633819F3FILE: 11 Alexander Skrjabin - Preludes, Op. 33 - III..flac Size: 2394635 Hash: A7F0721D331B8504FFF89EBE930F25DB Accuracy: -m0 Conclusion: CDDA 100% Signature: A9A287148EFBE318332CE61C51B48C6AE68A706EFILE: 10 Alexander Skrjabin - Preludes, Op. 33 - II..flac Size: 5563099 Hash: 0AF0003656F4E6D205F306AD5CCB3C39 Accuracy: -m0 Conclusion: MPEG 97% Signature: 75136A9F6CBFF8E8261B86E30B8E17C76DDFB7E1FILE: 09 Alexander Skrjabin - Preludes, Op. 33 - I.flac Size: 4929135 Hash: A75DA1BFC8738F92A667C0736A065EE4 Accuracy: -m0 Conclusion: CDDA 43% Signature: 1AC1CC8CA3C52CF9AC2616109970F195396E19A3FILE: 08 Einar Torfi Einarsson - Desiring-Machines - Partial-object 0.1667.flac Size: 20944326 Hash: 40DDC241F3C588D580924D3946685837 Accuracy: -m0 Conclusion: CDDA 99% Signature: 97528657219E556A3AC7C7967BE9043C3143BF14FILE: 07 Gerrie de Vries - Haikus.flac Size: 16720699 Hash: 06201BF583C1235D033818F4F100DF62 Accuracy: -m0 Conclusion: MPEG 92% Signature: 56C50DD659BAA42AC0AF1785F5B4ED36A7B6CFF7FILE: 06 Robert Zuidam - A Love Unsung - Excerpt.flac Size: 27044938 Hash: 9B8E4A3C2EE5D3A47CDA8B498FDE657F Accuracy: -m0 Conclusion: MPEG 91% Signature: 68EC1B5B2F4E3CF6C8DA812EEC73856C8931C0F6FILE: 05 Maurice Ravel - Tombeau de Couperin, M.68a - V. Rigaudon.flac Size: 14488125 Hash: D28613A3D129217BDBB9A85D7ED5295A Accuracy: -m0 Conclusion: CDDA 49% Signature: F9061F282842C3EB3DEBCA9ACB8356916C0191D5FILE: 04 Maurice Ravel - Tombeau de Couperin, M.68a - IV. Menuet.flac Size: 20471878 Hash: 4D16EB787AAC73E57231E6C22E1890EA Accuracy: -m0 Conclusion: CDDA 49% Signature: 20AB7C15692F14EFAEF8187A48B8BD9394DFDE9BFILE: 03 Maurice Ravel - Tombeau de Couperin, M.68a - III. Fugue.flac Size: 16135419 Hash: 5B6B5225978612293264C719B8893DBD Accuracy: -m0 Conclusion: MPEG 93% Signature: 6BFAA2AEF060AAB9DB6B7C34500D8B45860ACF1FFILE: 02 Maurice Ravel - Tombeau de Couperin, M.68a - II. Forlane.flac Size: 27680715 Hash: B935CCC28E742097A9E76AD20680A754 Accuracy: -m0 Conclusion: CDDA 43% Signature: 34A59EFE8F7500A21858E4EA6AEB75E560F38925FILE: 01 Maurice Ravel - Tombeau de Couperin, M.68a - I. Prelude.flac Size: 15347656 Hash: 170702018F070BECE4865E8DD1C66075 Accuracy: -m0 Conclusion: CDDA 58% Signature: 5F40E11C5B4FA45C78B7A07492069311A79558DB

Динамический диапазон

foobar2000 1.2.2 / Замер динамического диапазона (DR) 1.1.1Дата отчёта: 2014-10-29 18:50:39
--------------------------------------------------------------------------------Анализ: The Stolz Quartet / Dutch Masters and their Inspiration--------------------------------------------------------------------------------
DR Пики RMS Продолжительность трека--------------------------------------------------------------------------------DR13 -4.33 дБ -21.75 дБ 3:17 ?-Tombeau de Couperin, M.68a: I. PreludeDR14 -2.85 дБ -21.33 дБ 5:50 ?-Tombeau de Couperin, M.68a: II. ForlaneDR14 -8.53 дБ -27.73 дБ 3:45 ?-Tombeau de Couperin, M.68a: III. FugueDR14 -3.20 дБ -21.78 дБ 4:22 ?-Tombeau de Couperin, M.68a: IV. MenuetDR14 -2.04 дБ -20.79 дБ 3:16 ?-Tombeau de Couperin, M.68a: V. RigaudonDR13 -4.62 дБ -23.78 дБ 6:10 ?-A Love Unsung: ExcerptDR13 -9.12 дБ -29.00 дБ 4:25 ?-HaikusDR21 -6.26 дБ -32.55 дБ 4:09 ?-Desiring-Machines: Partial-object 0.1667DR10 -5.00 дБ -21.57 дБ 1:05 ?-Preludes, Op. 33: I.DR11 -6.06 дБ -22.61 дБ 1:20 ?-Preludes, Op. 33: II.DR12 -0.61 дБ -17.29 дБ 0:30 ?-Preludes, Op. 33: III.DR12 -1.69 дБ -17.98 дБ 0:50 ?-Preludes, Op. 33: IV.DR13 -1.73 дБ -23.34 дБ 2:33 ?-Preludes to Infinity: I. MysteriousDR13 -0.19 дБ -17.53 дБ 3:07 ?-Preludes to Infinity: II. RestlessDR12 -3.96 дБ -20.95 дБ 3:00 ?-Preludes to Infinity: III. ReligiousDR12 -2.84 дБ -19.34 дБ 3:46 ?-Preludes to Infinity: IV. LuminousDR11 -5.58 дБ -22.12 дБ 2:42 ?-Via Crucis, Station IV, S.53 - Jesu begegnet seiner heiligen Mutter--------------------------------------------------------------------------------
Количество треков: 17Реальные значения DR: DR13
Частота: 44100 ГцКаналов: 2Разрядность: 16Битрейт: 590 кбит/сКодек: FLAC================================================================================

Скриншот спектра частот

Доп. информация

Релиз полностью готов к воспроизведению в аудиоплеере (я ориентировался на foobar2000)При скачивании, если необходимо, переименуйте папку, в которой будет находиться альбомБольшая просьба к скачавшим поддерживать раздачу! Помогайте другим, ведь вам тоже может понадобиться помощь!Не забываем говорить "Спасибо"!Комментарии приветствуются!



Показать сообщения:    

Текущее время: 06-Дек 22:51

Часовой пояс: UTC + 3


Вы не можете начинать темы
Вы не можете отвечать на сообщения
Вы не можете редактировать свои сообщения
Вы не можете удалять свои сообщения
Вы не можете голосовать в опросах
Вы не можете прикреплять файлы к сообщениям
Вы не можете скачивать файлы