(Classical) [WEB] Mozart - Haydn-Quartetten K.387, K.428/421b, K.465 (Cuarteto Casals) - 2014, FLAC (tracks) lossless


 

[Цитировать]

Wolfgang Amadeus MozartString Quartets Dedicated to Joseph HaydnCuarteto Casals- Жанр: Classical
Год издания диска: 2014
Издатель (лейбл): Harmonia Mundi
Аудиокодек: FLAC
Тип рипа: tracks
Битрейт аудио: lossless
Продолжительность: 01:33:44
Источник (релизер): Qobuz (Caloriana)
Наличие сканов: Front, Digital Booklet-
String Quartet No. 14 in G Major, K.387 - 'Spring'
01. I. Allegro vivace assai (7:40)
02. II. Menuetto. Allegretto - Trio (7:18)
03. III. Andante cantabile (6:41)
04. IV. Molto allegro (Extended Version) (7:52)
String Quartet No. 16 in E Flat Major, K.428/421b
05. I. Allegro non troppo (Extended Version) (9:59)
06. II. Andante con moto (10:37)
07. III. Menuetto. Allegretto - Trio (5:14)
08. IV. Allegro vivace (5:40)
String Quartet No. 19 in C Major, K. 465 - 'Dissonances'
09. I. Adagio - Allegro (Extended Version) (13:48)
10. II. Andante cantabile (6:54)
11. III. Menuetto. Allegro - Trio (4:29)
12. IV. Allegro molto (7:32)-Исполнители:
String quartet Cuarteto Casals, Barcelona
Vera Martínez Mehner - Violin
Abel Tomàs - Violin
Jonathan Brown - Viola
Arnau Tomàs - Cello-Отчёты

Лог проверки качества

-----------------------
DON'T MODIFY THIS FILE
-----------------------
PERFORMER: auCDtect Task Manager, ver. 1.6.0 RC1 build 1.6.0.1Copyright (c) 2008-2010 y-soft. All rights reservedhttp://y-soft.org
ANALYZER: auCDtect: CD records authenticity detector, version 0.8.2Copyright (c) 2004 Oleg Berngardt. All rights reserved.Copyright (c) 2004 Alexander Djourik. All rights reserved.
FILE: 12 - String Quartet No. 19 in C Major, K. 465 - Dissonances IV. Allegro molto.flac Size: 38536714 Hash: 8DA7D35A98F511A0F927CA36B60F1929 Accuracy: -m0 Conclusion: CDDA 100% Signature: 12B10AA453BB743DE9488EFFD29C6E091B2BB2EDFILE: 11 - String Quartet No. 19 in C Major, K. 465 - Dissonances III. Menuetto. Allegro - Trio.flac Size: 22544576 Hash: 8FAB275E746C22A6CBB485E49F95E085 Accuracy: -m0 Conclusion: CDDA 100% Signature: 0D3DA00467A488E11DAF24881FD36B88EAD1B4A0FILE: 10 - String Quartet No. 19 in C Major, K. 465 - Dissonances II. Andante cantabile.flac Size: 32172639 Hash: C079E2A879DB3CF5EAB5073D25A259C7 Accuracy: -m0 Conclusion: CDDA 100% Signature: 02FA1E82E3C7D6121D85D2884018FBC4222366E8FILE: 09 - String Quartet No. 19 in C Major, K. 465 - Dissonances I. Adagio - Allegro (Extended Version).flac Size: 71747820 Hash: 2D3DE6643FAA9AD2B3AF978A3E589D1B Accuracy: -m0 Conclusion: CDDA 99% Signature: 23EDE7877D8852BB2C45C70BEF98E7B134B3F316FILE: 08 - String Quartet No. 16 in E Flat Major, K.428421b IV. Allegro vivace.flac Size: 26522702 Hash: 77D2EA9D8725D3B5C61936F5CA023C04 Accuracy: -m0 Conclusion: CDDA 99% Signature: A56422A1B9395C3897B68802DEE1A50F8943DE16FILE: 07 - String Quartet No. 16 in E Flat Major, K.428421b III. Menuetto. Allegretto - Trio.flac Size: 25117824 Hash: F29A1E07D96146CCA314041347C76B16 Accuracy: -m0 Conclusion: CDDA 100% Signature: B79B2AC6B91651A886A9796B5511BBCEEFC0CBB9FILE: 06 - String Quartet No. 16 in E Flat Major, K.428421b II. Andante con moto.flac Size: 49124145 Hash: 7DE7463EFF0AA566195EB72C9A32C27E Accuracy: -m0 Conclusion: CDDA 99% Signature: 4F28FEAD81B135B046FDAEBA2AE9079138A0E91BFILE: 05 - String Quartet No. 16 in E Flat Major, K.428421b I. Allegro non troppo (Extended Version).flac Size: 49737237 Hash: E399462BDAFC32F4BFF8B6AD8E0B28FA Accuracy: -m0 Conclusion: CDDA 99% Signature: 04F77EA1AC7739513A75187D67E2E3169F0E8A96FILE: 04 - String Quartet No. 14 in G Major, K.387 - 'Spring' IV. Molto allegro (Extended Version).flac Size: 39995296 Hash: 2E593ACC3A03FF3142B1854FA5B6910B Accuracy: -m0 Conclusion: CDDA 100% Signature: 933F7A4A3B947399C31CB37EB4C430DEF778D2A6FILE: 03 - String Quartet No. 14 in G Major, K.387 - 'Spring' III. Andante cantabile.flac Size: 31039042 Hash: 2ED382A99154660989A7339781F692B3 Accuracy: -m0 Conclusion: CDDA 100% Signature: 58C6F893E7E93CFF094B9F093A902927CF04C820FILE: 02 - String Quartet No. 14 in G Major, K.387 - 'Spring' II. Menuetto. Allegretto - Trio.flac Size: 35739824 Hash: 493747B0CF3A1B462826E57AE7370140 Accuracy: -m0 Conclusion: CDDA 100% Signature: E4BEC925D7F115BAE4279802903771ECA2BA452BFILE: 01 - String Quartet No. 14 in G Major, K.387 - 'Spring' I. Allegro vivace assai.flac Size: 38495192 Hash: 9599B7BE5184E583083A3A27DFE95F17 Accuracy: -m0 Conclusion: CDDA 100% Signature: 5A8B32C3BA6D755ADC2A795EECA6E94C55226B95

Динамический диапазон

foobar2000 1.2.2 / Замер динамического диапазона (DR) 1.1.1Дата отчёта: 2014-10-19 23:03:43
--------------------------------------------------------------------------------Анализ: Cuarteto Casals / Mozart: String Quartets dedicated to Joseph Haydn--------------------------------------------------------------------------------
DR Пики RMS Продолжительность трека--------------------------------------------------------------------------------DR14 -1.35 дБ -20.87 дБ 7:40 ?-String Quartet No. 14 in G Major, K.387 - 'Spring' : I. Allegro vivace assaiDR14 -0.36 дБ -20.34 дБ 7:18 ?-String Quartet No. 14 in G Major, K.387 - 'Spring' : II. Menuetto. Allegretto - TrioDR15 -1.64 дБ -22.78 дБ 6:41 ?-String Quartet No. 14 in G Major, K.387 - 'Spring' : III. Andante cantabileDR14 -0.37 дБ -19.49 дБ 7:52 ?-String Quartet No. 14 in G Major, K.387 - 'Spring' : IV. Molto allegro (Extended Version)DR14 -0.32 дБ -19.56 дБ 9:59 ?-String Quartet No. 16 in E Flat Major, K.428/421b : I. Allegro non troppo (Extended Version)DR14 -2.33 дБ -23.22 дБ 10:37 ?-String Quartet No. 16 in E Flat Major, K.428/421b : II. Andante con motoDR15 -0.99 дБ -20.88 дБ 5:14 ?-String Quartet No. 16 in E Flat Major, K.428/421b : III. Menuetto. Allegretto - TrioDR15 -0.35 дБ -21.00 дБ 5:40 ?-String Quartet No. 16 in E Flat Major, K.428/421b : IV. Allegro vivaceDR14 -0.29 дБ -18.62 дБ 13:48 ?-String Quartet No. 19 in C Major, K. 465 - Dissonances : I. Adagio - Allegro (Extended Version)DR14 -0.32 дБ -21.90 дБ 6:54 ?-String Quartet No. 19 in C Major, K. 465 - Dissonances : II. Andante cantabileDR14 -0.33 дБ -19.98 дБ 4:29 ?-String Quartet No. 19 in C Major, K. 465 - Dissonances : III. Menuetto. Allegro - TrioDR14 -0.29 дБ -18.96 дБ 7:32 ?-String Quartet No. 19 in C Major, K. 465 - Dissonances : IV. Allegro molto--------------------------------------------------------------------------------
Количество треков: 12Реальные значения DR: DR14
Частота: 44100 ГцКаналов: 2Разрядность: 16Битрейт: 681 кбит/сКодек: FLAC================================================================================

Скриншот спектра частот

Доп. информация

Релиз полностью готов к воспроизведению в аудиоплеере (я ориентировался на foobar2000)При скачивании, если необходимо, переименуйте папку, в которой будет находиться альбом



Показать сообщения:    

Текущее время: 10-Дек 23:30

Часовой пояс: UTC + 3


Вы не можете начинать темы
Вы не можете отвечать на сообщения
Вы не можете редактировать свои сообщения
Вы не можете удалять свои сообщения
Вы не можете голосовать в опросах
Вы не можете прикреплять файлы к сообщениям
Вы не можете скачивать файлы