(Classical) Claus Ogermann - Works for Violin & Piano - Yue Deng, Jean-Yves Thibaudet - 2007, FLAC (image+.cue) lossless


 

[Цитировать]

Claus Ogermann - Works for Violin & Piano - Yue Deng, Jean-Yves Thibaudet
Жанр: Classical
Год издания диска: 2007
Издатель (лейбл): Decca
Дата записи: 2006
Аудиокодек: FLAC
Тип рипа: image+.cue
Битрейт аудио: lossless
Продолжительность: 65:22
Источник: собственный рип
Наличие сканов в содержимом раздачи: да
Треклист:
Claus Ogermann (b.1930)
[1] Sarabande-Fantasie
[2]-[5] Duo lirico
[6] Preludio and Chant
[7] Nightwings
Исполнители:
Yue Deng violin
Jean-Yves Thibaudet piano

Лог создания рипа

Exact Audio Copy V1.0 beta 3 from 29. August 2011
EAC extraction logfile from 2. October 2014, 20:46
Yue Deng, Jean-Yves Thibaudet / Ogermann - Works for Violin & Piano
Used drive : HL-DT-STDVDRAM GU70N Adapter: 0 ID: 0
Read mode : SecureUtilize accurate stream : YesDefeat audio cache : YesMake use of C2 pointers : No
Read offset correction : 48Overread into Lead-In and Lead-Out : NoFill up missing offset samples with silence : YesDelete leading and trailing silent blocks : NoNull samples used in CRC calculations : YesUsed interface : Native Win32 interface for Win NT & 2000
Used output format : User Defined EncoderSelected bitrate : 128 kBit/sQuality : HighAdd ID3 tag : NoCommand line compressor : C:\Program Files (x86)\Exact Audio Copy\Flac\flac.exeAdditional command line options : -V -8 -T "Date=%year%" -T "Genre=%genre%" %source%
TOC of the extracted CD
Track | Start | Length | Start sector | End sector --------------------------------------------------------- 1 | 0:00.00 | 14:32.69 | 0 | 65468 2 | 14:32.69 | 4:53.12 | 65469 | 87455 3 | 19:26.06 | 8:50.64 | 87456 | 127269 4 | 28:16.70 | 8:47.70 | 127270 | 166864 5 | 37:04.65 | 5:21.21 | 166865 | 190960 6 | 42:26.11 | 18:35.63 | 190961 | 274648 7 | 61:01.74 | 4:17.36 | 274649 | 293959
Range status and errors
Selected range
Filename C:\temp\Ogermann - Works for Violin & Piano\Ogermann - Works for Violin & Piano.wav
Peak level 98.8 % Extraction speed 5.4 X Range quality 100.0 % Test CRC F8F990BD Copy CRC F8F990BD Copy OK
No errors occurred
AccurateRip summary
Track 1 accurately ripped (confidence 5) [FD28A1CA] (AR v2)Track 2 accurately ripped (confidence 5) [68562C67] (AR v2)Track 3 accurately ripped (confidence 5) [8DCF0BDB] (AR v2)Track 4 accurately ripped (confidence 5) [BBF5CC36] (AR v2)Track 5 accurately ripped (confidence 5) [6BE15534] (AR v2)Track 6 accurately ripped (confidence 5) [AD045229] (AR v2)Track 7 accurately ripped (confidence 5) [9DD68596] (AR v2)
All tracks accurately ripped
End of status report
==== Log checksum FDE994D8DEA94EFDFD647F031BCC5BC9E928E1570AF587BB7DF5384D777EC8A8 ====



Показать сообщения:    

Текущее время: 05-Дек 19:40

Часовой пояс: UTC + 3


Вы не можете начинать темы
Вы не можете отвечать на сообщения
Вы не можете редактировать свои сообщения
Вы не можете удалять свои сообщения
Вы не можете голосовать в опросах
Вы не можете прикреплять файлы к сообщениям
Вы не можете скачивать файлы