(Classical) Эльснер – Две скрипичные сонаты, op. 10; Фортепианные трио, op. 2 и квартет, op. 15 / Elsner – Chamber works with piano (The Warsaw Trio: Andrzej Gebski, Jaroslaw Domzal, Joanna Lawrynowicz; Anna Betley) - 2006, FLAC (image+.cue) lossless


 

[Цитировать]

Эльснер – Скрипичные сонаты, op. 10 № 1 и 2, Фортепианные трио, op. 2 и квартет, op. 15 / Elsner – Chamber works with piano (The Warsaw Trio: Andrzej Gębski, Jarosław Domżał, Joanna Ławrynowicz; Anna Betley)
Жанр: Classical
Страна-производитель диска: Польша
Год издания диска: 2006
Издатель (лейбл): Acte Préalable
Номер по каталогу: AP0138
Дата записи: январь и март 2006 г., Варшава.
Аудиокодек: FLAC
Тип рипа: image+.cue
Битрейт аудио: lossless
Продолжительность: 01:10:02
Источник: odeonmusic
Наличие сканов в содержимом раздачи: да
Треклист:
Юзеф Антоний Францишек (Йозеф Ксавер) Эльснер (1769 — 1854).
Три сонаты для фортепиано со скрипкой, op. 10 (ок. 1798).
Соната № 2 D-dur.
01. I. Allegro [05:22].
02. II. Scherzando poco allegretto [03:56].
03. III. Rondo. Allegro [03:57].
Соната № 1 F-dur.
04. I. Allegro [06:24].
05. II. Andante [03:28].
06. III. Rondo. Allegretto [03:44].
07. Полонез D-dur для скрипки с фортепиано (1836) [01:52].
Большая соната B-dur для фортепиано с обязательными скрипкой и виолончелью, op. 2 (ок. 1798).
08. I. Allegro [08:33].
09. II. Larghetto [05:34].
10. III. Rondo. Allegro [04:30].
Большой квартет Es-dur для фортепиано, скрипки, альта и виолончели, op. 15 (ок. 1805).
11. I. Moderato [11:53].
12. II. Andantino [05:59].
13. III. Allegro assai [04:42].
Исполнители:
The Warsaw Trio:
Andrzej Gębski (скрипка),
Jarosław Domżał (виолончель),
Joanna Ławrynowicz (фортепиано).
Anna Betley (альт).

Лог создания рипа

Exact Audio Copy V1.0 beta 3 from 29. August 2011
EAC extraction logfile from 5. February 2013, 18:10
The Warsaw Trio / Józef Elsner - Chamber music with piano - The Warsaw Trio
Used drive : TSSTcorpCDDVDW SH-222BB Adapter: 2 ID: 1
Read mode : SecureUtilize accurate stream : YesDefeat audio cache : YesMake use of C2 pointers : No
Read offset correction : 6Overread into Lead-In and Lead-Out : NoFill up missing offset samples with silence : YesDelete leading and trailing silent blocks : NoNull samples used in CRC calculations : YesUsed interface : Native Win32 interface for Win NT & 2000
Used output format : User Defined EncoderSelected bitrate : 1024 kBit/sQuality : HighAdd ID3 tag : NoCommand line compressor : C:\Program Files\Exact Audio Copy\Flac\flac.exeAdditional command line options : -8 -V -T "TITLE=%title%" -T "ARTIST=%artist%" -T "ALBUMARTIST=%albumartist%" -T "ALBUM=%albumtitle%" -T "DATE=%year%" -T "TRACKNUMBER=%tracknr%" -T "TRACKTOTAL=%numtracks%" -T "GENRE=%genre%" -T "COMMENT=%comment%" -T "PERFORMER=%albuminterpret%" -T "COMPOSER=%composer%" %source% -o %dest%
TOC of the extracted CD
Track | Start | Length | Start sector | End sector --------------------------------------------------------- 1 | 0:00.00 | 5:22.45 | 0 | 24194 2 | 5:22.45 | 3:56.74 | 24195 | 41968 3 | 9:19.44 | 3:57.10 | 41969 | 59753 4 | 13:16.54 | 6:24.27 | 59754 | 88580 5 | 19:41.06 | 3:28.72 | 88581 | 104252 6 | 23:10.03 | 3:44.63 | 104253 | 121115 7 | 26:54.66 | 1:52.59 | 121116 | 129574 8 | 28:47.50 | 8:33.20 | 129575 | 168069 9 | 37:20.70 | 5:34.47 | 168070 | 193166 10 | 42:55.42 | 4:30.43 | 193167 | 213459 11 | 47:26.10 | 11:53.52 | 213460 | 266986 12 | 59:19.62 | 5:59.69 | 266987 | 293980 13 | 65:19.56 | 4:42.25 | 293981 | 315155
Range status and errors
Selected range
Filename G:\Ripped general\[9202] Józef Elsner – Chamber music with piano – The Warsaw Trio\Józef Elsner - Chamber music with piano - The Warsaw Trio.wav
Peak level 100.0 % Extraction speed 7.4 X Range quality 100.0 % Test CRC 5CC48AA6 Copy CRC 5CC48AA6 Copy OK
No errors occurred
AccurateRip summary
Track 1 not present in databaseTrack 2 not present in databaseTrack 3 not present in databaseTrack 4 not present in databaseTrack 5 not present in databaseTrack 6 not present in databaseTrack 7 not present in databaseTrack 8 not present in databaseTrack 9 not present in databaseTrack 10 not present in databaseTrack 11 not present in databaseTrack 12 not present in databaseTrack 13 not present in database
None of the tracks are present in the AccurateRip database
End of status report

Содержание индексной карты (.CUE)

REM GENRE ClassicalREM DISCID BF106A0DREM COMMENT "ExactAudioCopy v1.0b3"PERFORMER "The Warsaw Trio"TITLE "Elsner – Chamber music with piano – The Warsaw Trio"FILE "Elsner – Chamber music with piano – The Warsaw Trio.flac" WAVE TRACK 01 AUDIO TITLE "Sonata for violin and piano in D major, Op. 10 No. 2 - I. Allegro" PERFORMER "The Warsaw Trio" INDEX 01 00:00:00 TRACK 02 AUDIO TITLE "Sonata for violin and piano in D major, Op. 10 No. 2 - II. Scherzando poco allegretto" PERFORMER "The Warsaw Trio" INDEX 01 05:22:45 TRACK 03 AUDIO TITLE "Sonata for violin and piano in D major, Op. 10 No. 2 - III. Rondo. Allegro" PERFORMER "The Warsaw Trio" INDEX 01 09:19:44 TRACK 04 AUDIO TITLE "Sonata for violin and piano in F major, Op. 10 No. 1 - I. Allegro" PERFORMER "The Warsaw Trio" INDEX 01 13:16:54 TRACK 05 AUDIO TITLE "Sonata for violin and piano in F major, Op. 10 No. 1 - II. Andante" PERFORMER "The Warsaw Trio" INDEX 01 19:41:06 TRACK 06 AUDIO TITLE "Sonata for violin and piano in F major, Op. 10 No. 1 - III. Rondo. Allegretto" PERFORMER "The Warsaw Trio" INDEX 01 23:10:03 TRACK 07 AUDIO TITLE "Polonaise for violin and piano on D major" PERFORMER "The Warsaw Trio" INDEX 01 26:54:66 TRACK 08 AUDIO TITLE "Grande Sonate for piano, violin & cello in B flat major, Op. 2 - I. Allegro" PERFORMER "The Warsaw Trio" INDEX 01 28:47:50 TRACK 09 AUDIO TITLE "Grande Sonate for piano, violin & cello in B flat major, Op. 2 - II. Larghetto" PERFORMER "The Warsaw Trio" INDEX 01 37:20:70 TRACK 10 AUDIO TITLE "Grande Sonate for piano, violin & cello in B flat major, Op. 2 - III. Rondo. Allegro" PERFORMER "The Warsaw Trio" INDEX 01 42:55:42 TRACK 11 AUDIO TITLE "Grand Quatuour for piano, violin, viola & cello in E flat major, Op. 15 - I. Moderato" PERFORMER "The Warsaw Trio" INDEX 01 47:26:10 TRACK 12 AUDIO TITLE "Grand Quatuour for piano, violin, viola & cello in E flat major, Op. 15 - II. Andantino" PERFORMER "The Warsaw Trio" INDEX 01 59:19:62 TRACK 13 AUDIO TITLE "Grand Quatuour for piano, violin, viola & cello in E flat major, Op. 15 - III. Allegro assai" PERFORMER "The Warsaw Trio" INDEX 01 65:19:56

Вариант индексной карты (.CUE) с выставленными зазорами

REM GENRE ClassicalREM DISCID BF106A0DREM COMMENT "ExactAudioCopy v1.0b3"PERFORMER "The Warsaw Trio"TITLE "Elsner – Chamber music with piano – The Warsaw Trio"FILE "Elsner – Chamber music with piano – The Warsaw Trio.flac" WAVE TRACK 01 AUDIO TITLE "Sonata for violin and piano in D major, Op. 10 No. 2 - I. Allegro" PERFORMER "The Warsaw Trio" INDEX 01 00:00:00 TRACK 02 AUDIO TITLE "Sonata for violin and piano in D major, Op. 10 No. 2 - II. Scherzando poco allegretto" PERFORMER "The Warsaw Trio" INDEX 01 05:22:45 TRACK 03 AUDIO TITLE "Sonata for violin and piano in D major, Op. 10 No. 2 - III. Rondo. Allegro" PERFORMER "The Warsaw Trio" INDEX 01 09:19:44 TRACK 04 AUDIO TITLE "Sonata for violin and piano in F major, Op. 10 No. 1 - I. Allegro" PERFORMER "The Warsaw Trio" INDEX 00 13:13:54 INDEX 01 13:16:54 TRACK 05 AUDIO TITLE "Sonata for violin and piano in F major, Op. 10 No. 1 - II. Andante" PERFORMER "The Warsaw Trio" INDEX 01 19:41:06 TRACK 06 AUDIO TITLE "Sonata for violin and piano in F major, Op. 10 No. 1 - III. Rondo. Allegretto" PERFORMER "The Warsaw Trio" INDEX 01 23:10:03 TRACK 07 AUDIO TITLE "Polonaise for violin and piano on D major" PERFORMER "The Warsaw Trio" INDEX 00 26:52:08 INDEX 01 26:54:66 TRACK 08 AUDIO TITLE "Grande Sonate for piano, violin & cello in B flat major, Op. 2 - I. Allegro" PERFORMER "The Warsaw Trio" INDEX 00 28:44:68 INDEX 01 28:47:50 TRACK 09 AUDIO TITLE "Grande Sonate for piano, violin & cello in B flat major, Op. 2 - II. Larghetto" PERFORMER "The Warsaw Trio" INDEX 01 37:20:70 TRACK 10 AUDIO TITLE "Grande Sonate for piano, violin & cello in B flat major, Op. 2 - III. Rondo. Allegro" PERFORMER "The Warsaw Trio" INDEX 01 42:55:42 TRACK 11 AUDIO TITLE "Grand Quatuour for piano, violin, viola & cello in E flat major, Op. 15 - I. Moderato" PERFORMER "The Warsaw Trio" INDEX 00 47:22:72 INDEX 01 47:26:10 TRACK 12 AUDIO TITLE "Grand Quatuour for piano, violin, viola & cello in E flat major, Op. 15 - II. Andantino" PERFORMER "The Warsaw Trio" INDEX 01 59:19:62 TRACK 13 AUDIO TITLE "Grand Quatuour for piano, violin, viola & cello in E flat major, Op. 15 - III. Allegro assai" PERFORMER "The Warsaw Trio" INDEX 01 65:19:56



Показать сообщения:    

Текущее время: 10-Дек 04:09

Часовой пояс: UTC + 3


Вы не можете начинать темы
Вы не можете отвечать на сообщения
Вы не можете редактировать свои сообщения
Вы не можете удалять свои сообщения
Вы не можете голосовать в опросах
Вы не можете прикреплять файлы к сообщениям
Вы не можете скачивать файлы