(Classical) Франц Лахнер, Рейнбергер – Нонеты / Franz Lachner & Rheinberger (Ensemble Wien-Berlin: Schulz, Schellenberger, Leister, Hogner, Turkovic, Kussmaul, Christ, Faust, Posch) – Nonets - 1994, FLAC (image+.cue) lossless


 

[Цитировать]

Франц Лахнер, Рейнбергер – Нонеты / Franz Lachner & Rheinberger – Nonets (Ensemble Wien-Berlin: Schulz, Schellenberger, Leister, Högner, Turković, Kussmaul, Christ, Faust, Posch)
Жанр: Classical
Страна-производитель диска: США
Год издания диска: 1994
Издатель (лейбл): Sony Classical
Номер по каталогу: SK 58971
Дата записи: 15 — 20 августа 1993 г., Аберзее.
Аудиокодек: FLAC
Тип рипа: image+.cue
Битрейт аудио: lossless
Продолжительность: 01:06:36
Источник: odeonmusic
Наличие сканов в содержимом раздачи: да
Треклист:
Йозеф Габриэль Рейнбергер (1839 — 1901).
Нонет Es-dur для флейты, гобоя, кларнета, фагота, валторны, скрипки, альта, виолончели и контрабаса, op. 139 (1884).
01. I. Allegro [10:13].
02. II. Menuetto. Andantino. — Trio. — Menuetto da capo [07:23].
03. III. Adagio molto [08:22].
04. IV. Finale. Allegro. — Adagio molto. — Allegro vivo [07:22].
Франц Пауль Лахнер (1803 — 1890).
Нонет F-Dur для флейты, гобоя, кларнета, фагота, валторны, скрипки, альта, виолончели и контрабаса (1875?).
05. I. Andante. — Allegro moderato [10:09].
06. II. Menuetto. Allegretto moderato [07:58].
07. III. Adagio [07:15].
08. IV. Finale. Allegro ma non troppo [07:55].
Исполнители:
Ensemble Wien-Berlin:
Wolfgang Schulz (флейта),
Hansjörg Schellenberger (гобой),
Karl Leister (кларнет),
Günter Högner (валторна),
Milan Turković (фагот),
Rainer Kussmaul (скрипка),
Wolfram Christ (альт),
Georg Faust (виолончель),
Alois Posch (контрабас).

Лог создания рипа

Exact Audio Copy V1.0 beta 3 from 29. August 2011
EAC extraction logfile from 15. February 2013, 9:38
Ensemble Wien-Berlin / F.Lachner, Rheinberger - Nonets - Ensemble Wien-Berlin
Used drive : TSSTcorpCDDVDW SH-222BB Adapter: 2 ID: 1
Read mode : SecureUtilize accurate stream : YesDefeat audio cache : YesMake use of C2 pointers : No
Read offset correction : 6Overread into Lead-In and Lead-Out : NoFill up missing offset samples with silence : YesDelete leading and trailing silent blocks : NoNull samples used in CRC calculations : YesUsed interface : Native Win32 interface for Win NT & 2000
Used output format : User Defined EncoderSelected bitrate : 1024 kBit/sQuality : HighAdd ID3 tag : NoCommand line compressor : C:\Program Files\Exact Audio Copy\Flac\flac.exeAdditional command line options : -8 -V -T "TITLE=%title%" -T "ARTIST=%artist%" -T "ALBUMARTIST=%albumartist%" -T "ALBUM=%albumtitle%" -T "DATE=%year%" -T "TRACKNUMBER=%tracknr%" -T "TRACKTOTAL=%numtracks%" -T "GENRE=%genre%" -T "COMMENT=%comment%" -T "PERFORMER=%albuminterpret%" -T "COMPOSER=%composer%" %source% -o %dest%
TOC of the extracted CD
Track | Start | Length | Start sector | End sector --------------------------------------------------------- 1 | 0:00.00 | 10:11.68 | 0 | 45892 2 | 10:11.68 | 7:21.25 | 45893 | 78992 3 | 17:33.18 | 8:18.42 | 78993 | 116384 4 | 25:51.60 | 7:21.20 | 116385 | 149479 5 | 33:13.05 | 10:07.28 | 149480 | 195032 6 | 43:20.33 | 7:56.50 | 195033 | 230782 7 | 51:17.08 | 7:10.67 | 230783 | 263099 8 | 58:28.00 | 7:56.18 | 263100 | 298817
Range status and errors
Selected range
Filename G:\Ripped general\[1665] F.Lachner, Rheinberger – Nonets – Ensemble Wien-Berlin\F.Lachner, Rheinberger - Nonets - Ensemble Wien-Berlin.wav
Peak level 99.8 % Extraction speed 3.4 X Range quality 100.0 % Test CRC 934A1571 Copy CRC 934A1571 Copy OK
No errors occurred
AccurateRip summary
Track 1 not present in databaseTrack 2 not present in databaseTrack 3 not present in databaseTrack 4 not present in databaseTrack 5 not present in databaseTrack 6 not present in databaseTrack 7 not present in databaseTrack 8 not present in database
None of the tracks are present in the AccurateRip database
End of status report

Содержание индексной карты (.CUE)

REM GENRE "Chamber Music"REM DATE 1994REM DISCID 630F9008REM COMMENT "ExactAudioCopy v1.0b3"PERFORMER "Ensemble Wien-Berlin"TITLE "Lachner F., Rheinberger – Nonets – Ensemble Wien-Berlin"FILE "Lachner F., Rheinberger – Nonets – Ensemble Wien-Berlin.flac" WAVE TRACK 01 AUDIO TITLE "Rheinberger - Nonet in E flat major, Op. 139 - I. Allegro" PERFORMER "Ensemble Wien-Berlin" INDEX 01 00:00:00 TRACK 02 AUDIO TITLE "Rheinberger - Nonet in E flat major, Op. 139 - II. Menuetto. Andante - Trio" PERFORMER "Ensemble Wien-Berlin" INDEX 01 10:11:68 TRACK 03 AUDIO TITLE "Rheinberger - Nonet in E flat major, Op. 139 - III. Adagio molto" PERFORMER "Ensemble Wien-Berlin" INDEX 01 17:33:18 TRACK 04 AUDIO TITLE "Rheinberger - Nonet in E flat major, Op. 139 - IV. Finale. Allegro" PERFORMER "Ensemble Wien-Berlin" INDEX 01 25:51:60 TRACK 05 AUDIO TITLE "Lachner Franz - Nonet in F major - I. Andante - Allegro moderato" PERFORMER "Ensemble Wien-Berlin" INDEX 00 33:10:65 INDEX 01 33:13:05 TRACK 06 AUDIO TITLE "Lachner Franz - Nonet in F major - II. Menuetto. Allegretto moderato - Trio" PERFORMER "Ensemble Wien-Berlin" INDEX 01 43:20:33 TRACK 07 AUDIO TITLE "Lachner Franz - Nonet in F major - III. Adagio" PERFORMER "Ensemble Wien-Berlin" INDEX 01 51:17:08 TRACK 08 AUDIO TITLE "Lachner Franz - Nonet in F major - IV. Finale. Allegro ma non troppo" PERFORMER "Ensemble Wien-Berlin" INDEX 01 58:28:00

Вариант индексной карты (.CUE) с выставленными зазорами

REM GENRE "Chamber Music"REM DATE 1994REM DISCID 630F9008REM COMMENT "ExactAudioCopy v1.0b3"PERFORMER "Ensemble Wien-Berlin"TITLE "Lachner F., Rheinberger – Nonets – Ensemble Wien-Berlin"FILE "Lachner F., Rheinberger – Nonets – Ensemble Wien-Berlin.flac" WAVE TRACK 01 AUDIO TITLE "Rheinberger - Nonet in E flat major, Op. 139 - I. Allegro" PERFORMER "Ensemble Wien-Berlin" INDEX 00 00:00:00 INDEX 01 00:01:06 TRACK 02 AUDIO TITLE "Rheinberger - Nonet in E flat major, Op. 139 - II. Menuetto. Andante - Trio" PERFORMER "Ensemble Wien-Berlin" INDEX 00 10:10:65 INDEX 01 10:11:68 TRACK 03 AUDIO TITLE "Rheinberger - Nonet in E flat major, Op. 139 - III. Adagio molto" PERFORMER "Ensemble Wien-Berlin" INDEX 00 17:32:18 INDEX 01 17:33:18 TRACK 04 AUDIO TITLE "Rheinberger - Nonet in E flat major, Op. 139 - IV. Finale. Allegro" PERFORMER "Ensemble Wien-Berlin" INDEX 01 25:51:60 TRACK 05 AUDIO TITLE "Lachner Franz - Nonet in F major - I. Andante - Allegro moderato" PERFORMER "Ensemble Wien-Berlin" INDEX 00 33:10:00 INDEX 01 33:13:05 TRACK 06 AUDIO TITLE "Lachner Franz - Nonet in F major - II. Menuetto. Allegretto moderato - Trio" PERFORMER "Ensemble Wien-Berlin" INDEX 00 43:19:12 INDEX 01 43:20:33 TRACK 07 AUDIO TITLE "Lachner Franz - Nonet in F major - III. Adagio" PERFORMER "Ensemble Wien-Berlin" INDEX 00 51:16:28 INDEX 01 51:17:08 TRACK 08 AUDIO TITLE "Lachner Franz - Nonet in F major - IV. Finale. Allegro ma non troppo" PERFORMER "Ensemble Wien-Berlin" INDEX 01 58:28:00



Показать сообщения:    

Текущее время: 04-Дек 09:09

Часовой пояс: UTC + 3


Вы не можете начинать темы
Вы не можете отвечать на сообщения
Вы не можете редактировать свои сообщения
Вы не можете удалять свои сообщения
Вы не можете голосовать в опросах
Вы не можете прикреплять файлы к сообщениям
Вы не можете скачивать файлы