(Classical) Ludwig van Beethoven — Cello Sonata № 1 Op 5/1 • Piano Sonatas № 12 & 31 (Op 26, 110) (Jorg Metzger, Dieter Goldmann, Hugo Steurer) — 1994, APE (image+.cue) lossless


 

[Цитировать]

Cello Sonata № 1 Op 5/1 • Piano Sonatas № 12 & 31 (Op 26, 110)- Жанр: Classical
Страна-производитель диска: Германия
Год издания диска: 1994
Издатель (лейбл): Point Classics
Номер по каталогу: 2671242
CATALOG: 027726712420
Композитор: Ludwig van Beethoven
Аудио кодек: ape
Тип рипа: image+.cue
Битрейт аудио: lossless
Продолжительность: 00h59'06"
Источник: собственный рип
Наличие сканов в содержимом раздачи: нет-Треклист:
Cello Sonata № 1 F-Dur / in F Major Op 5/1
01. I. Adagio sostenuto – Allegro [00h14'23"]
02. II. Allegro vivace [00h07'10"]
Cello – Jörg Metzger, Piano – Dieter Goldmann
Piano Sonata № 12 As-Dur / in A-flat Major Op 26 «Funeral March»
03. I. Andante con variazoni [00h06'58"]
04. II. Scherzo (Allegro molto) [00h02'56"]
05. III. Marcia funebre sulla morte d'un eroe [00h06'19"]
06. IV. Allegro [00h02'42"]
Piano – Hugo Steurer
Piano Sonata № 31 As-Dur / in A-flat Major Op 110
07. I. Moderato cantabile molto espressivo [00h06'07"]
08. II. Allegro molto [00h02'08"]
09. III. Adagio ma non troppo – Fuga – Allegro ma non troppo [00h10'23"]
Piano – Dieter Goldmann-

EAC log

Exact Audio Copy V0.99 prebeta 5 from 4. May 2009
Отчёт EAC об извлечении, выполненном 10. сентября 2014, 11:06
Beethoven / Cello & Piano Sonatas
Дисковод: PIONEER DVD-RW  DVR-111D   Adapter: 1  ID: 0
Режим чтения                 : Достоверность
Использование точного потока : Да
Отключение кэша аудио        : Да
Использование указателей C2  : Нет
Коррекция смещения при чтении                     : 48
Способность читать области Lead-in и Lead-out     : Нет
Заполнение пропущенных сэмплов тишиной            : Да
Удаление блоков с тишиной в начале и конце        : Нет
При вычислениях CRC использовались нулевые сэмплы : Да
Интерфейс                                         : Установленный внешний ASPI-интерфейс
Выходной формат          : Monkey's Audio (без потерь)
Выбранный битрейт        : Normal Lossless Compression
Качество                 : Высокий
Добавление ID3-тэга      : Нет
Утилита сжатия           : C:\Program Files\Monkey's Audio\MAC.exe
TOC извлечённого CD
     Трек |   Старт  | Длительность | Начальный сектор | Конечный сектор
    ---------------------------------------------------------------------
       1  |  0:00.00 |   14:22.47   |           0      |      64696
       2  | 14:22.47 |    7:10.35   |       64697      |      96981
       3  | 21:33.07 |    6:58.03   |       96982      |     128334
       4  | 28:31.10 |    2:55.47   |      128335      |     141506
       5  | 31:26.57 |    6:19.20   |      141507      |     169951
       6  | 37:46.02 |    2:41.70   |      169952      |     182096
       7  | 40:27.72 |    6:06.58   |      182097      |     209604
       8  | 46:34.55 |    2:08.35   |      209605      |     219239
       9  | 48:43.15 |   10:23.12   |      219240      |     265976
Характеристики диапазона извлечения и сообщения об ошибках
Выбранный диапазон
     Имя файла D:\Музыка lossless\Beethoven Cello & Piano Sonatas Goldmann Metzger Steurer\Beethoven - Cello & Piano Sonatas.wav
     Пиковый уровень 87.8 %
     Качество диапазона 100.0 %
     CRC теста 7A3F9214
     CRC копии 7A3F9214
     Копирование... OK
Ошибок не произошло
AccurateRip: сводка
Трек  1  нет в базе данных
Трек  2  нет в базе данных
Трек  3  нет в базе данных
Трек  4  нет в базе данных
Трек  5  нет в базе данных
Трек  6  нет в базе данных
Трек  7  нет в базе данных
Трек  8  нет в базе данных
Трек  9  нет в базе данных
Ни одного трека нет в базе AccurateRip
Конец отчёта

-

CUE

REM GENRE Classical
REM DATE 1994
REM DISCID 970DDA09
REM COMMENT "ExactAudioCopy v0.99pb5"
PERFORMER "Beethoven"
TITLE "Cello & Piano Sonatas"
FILE "Beethoven - Cello & Piano Sonatas.ape" WAVE
  TRACK 01 AUDIO
    TITLE "Cello Sonata № 1 Op 5/1 F-Dur – I. Adagio sostenuto – Allegro"
    PERFORMER "Beethoven"
    INDEX 01 00:00:00
  TRACK 02 AUDIO
    TITLE "Cello Sonata № 1 Op 5/1 F-Dur – II. Allegro vivace"
    PERFORMER "Beethoven"
    INDEX 00 14:18:65
    INDEX 01 14:22:47
  TRACK 03 AUDIO
    TITLE "Piano Sonata № 12 Op 26 As-Dur «Funeral March» – I. Andante con variazoni"
    PERFORMER "Beethoven"
    INDEX 00 21:28:35
    INDEX 01 21:33:07
  TRACK 04 AUDIO
    TITLE "Piano Sonata № 12 Op 26 As-Dur «Funeral March» – II. Scherzo (Allegro molto)"
    PERFORMER "Beethoven"
    INDEX 00 28:28:52
    INDEX 01 28:31:10
  TRACK 05 AUDIO
    TITLE "Piano Sonata № 12 Op 26 As-Dur «Funeral March» – III. Marcia funebre sulla morte d'un eroe"
    PERFORMER "Beethoven"
    INDEX 00 31:23:65
    INDEX 01 31:26:57
  TRACK 06 AUDIO
    TITLE "Piano Sonata № 12 Op 26 As-Dur «Funeral March» – IV. Allegro"
    PERFORMER "Beethoven"
    INDEX 00 37:44:00
    INDEX 01 37:46:02
  TRACK 07 AUDIO
    TITLE "Piano Sonata № 31 Op 110 As-Dur – I. Moderato cantabile molto espressivo"
    PERFORMER "Beethoven"
    INDEX 00 40:22:07
    INDEX 01 40:27:72
  TRACK 08 AUDIO
    TITLE "Piano Sonata № 31 Op 110 As-Dur – II. Allegro molto"
    PERFORMER "Beethoven"
    INDEX 01 46:34:55
  TRACK 09 AUDIO
    TITLE "Piano Sonata № 31 Op 110 As-Dur – III. Adagio ma non troppo – Fuga – Allegro ma non troppo"
    PERFORMER "Beethoven"
    INDEX 01 48:43:15
-



Показать сообщения:    

Текущее время: 09-Дек 22:21

Часовой пояс: UTC + 3


Вы не можете начинать темы
Вы не можете отвечать на сообщения
Вы не можете редактировать свои сообщения
Вы не можете удалять свои сообщения
Вы не можете голосовать в опросах
Вы не можете прикреплять файлы к сообщениям
Вы не можете скачивать файлы