(Classical) Elena Kats-Chernin - Blue Silence - Complete Works for String Quartet (Eliza Aria; From Anna Magdalena\'s Notebook (after J.S. Bach); Silver Suite) (Acacia Quartet) - 2012, FLAC (image+.cue) lossless


 

[Цитировать]

Elena Kats-Chernin - Blue Silence - Complete Works for String Quartet (Eliza Aria; From Anna Magdalena's Notebook (after J.S. Bach); Silver Suite) (Acacia Quartet)
Жанр: Classical
Год издания диска: 2012
Издатель (лейбл): Vexations840
Номер по каталогу: 840-1202
Дата записи:
Аудиокодек: FLAC
Тип рипа: image+.cue
Битрейт аудио: lossless
Продолжительность: CD1'42:34, CD2'44:02
Источник: скачано из сети
Наличие сканов в содержимом раздачи: да
Исполнители:
Elena Kats-Chernin
Acacia Quartet
Треклист:
CD 1:
01. Fast Blue Village 2 [0:05:14.25]
02. Eliza Aria (version for string quartet) [0:03:18.50]
03. Moody Tango (version for string quartet) [0:03:06.46]
04. Mezmer (version for string quartet) [0:03:40.15]
05. Road to Harvest (version for string quartet) [0:04:21.62]
06. Kwong Song (version for string quartet) [0:03:29.55]
07. Luke's Painting [0:02:18.10]
08. Second Door on the Left (version for string quartet) [0:02:37.02]
From Anna Magdalena's Notebook (after J.S. Bach)
09. I. Polonaise in G Minor [0:01:54.61]
10. II. Musette [0:02:46.63]
11. III. Aria [0:03:22.59]
12. IV. Menuet I [0:02:45.27]
13. V. Polonaise II [0:01:46.48]
14. VI. Menuet II [0:01:49.11]
CD 2:
01. Russian Rag (version for string quartet) [0:02:15.09]
02. Butterflying (version for string quartet) [0:03:46.41]
03. Pink Breasted Robin (version for string quartet) [0:02:08.28]
04. Blue Silence (version for string quartet) [0:07:01.74]
05. Blue Rose (version for string quartet) [0:03:11.43]
Silver Suite
06. Burnished Silver (version for string quartet) [0:02:41.30]
07. Silver Pearls (version for string quartet) [0:02:55.70]
08. Silver Poetry (version for string quartet) [0:02:47.24]
09. Silver Eucalypt [0:03:03.13]
10. Grotesk (version for string quartet) [0:02:15.50]
11. Drinking Song [0:01:13.57]
12. Charleston Noir (version for string quartet) [0:07:14.38]
13. Naive Waltz [0:01:42.44]
14. Slicked Back Tango (version for string quartet) [0:01:35.37]

LOG EAC CD1:

Exact Audio Copy V1.0 beta 3 from 29. August 2011
EAC extraction logfile from 8. August 2014, 1:17
Elena Kats-Chernin / Complete Works for String Quartet (Acacia Quartet) CD 1
Used drive : TSSTcorpCDDVDW SH-S223C Adapter: 2 ID: 1
Read mode : SecureUtilize accurate stream : YesDefeat audio cache : YesMake use of C2 pointers : No
Read offset correction : 697Overread into Lead-In and Lead-Out : NoFill up missing offset samples with silence : YesDelete leading and trailing silent blocks : NoNull samples used in CRC calculations : YesUsed interface : Native Win32 interface for Win NT & 2000
Used output format : User Defined EncoderSelected bitrate : 1024 kBit/sQuality : HighAdd ID3 tag : NoCommand line compressor : C:\Program Files (x86)\Exact Audio Copy\FLAC\FLAC.EXEAdditional command line options : -V -0 -T "COMMENT=Ripped by Tapaz9" -T "artist=%artist%" -T "title=%title%" -T "album=%albumtitle%" -T "date=%year%" -T "tracknumber=%tracknr%" -T "genre=%genre%" %source%
TOC of the extracted CD
Track | Start | Length | Start sector | End sector---------------------------------------------------------1 | 0:00.00 | 5:14.25 | 0 | 235742 | 5:14.25 | 3:18.50 | 23575 | 384743 | 8:33.00 | 3:06.46 | 38475 | 524704 | 11:39.46 | 3:40.15 | 52471 | 689855 | 15:19.61 | 4:21.62 | 68986 | 886226 | 19:41.48 | 3:29.55 | 88623 | 1043527 | 23:11.28 | 2:18.10 | 104353 | 1147128 | 25:29.38 | 2:37.02 | 114713 | 1264899 | 28:06.40 | 1:54.61 | 126490 | 13510010 | 30:01.26 | 2:46.63 | 135101 | 14761311 | 32:48.14 | 3:22.59 | 147614 | 16282212 | 36:10.73 | 2:45.27 | 162823 | 17522413 | 38:56.25 | 1:46.48 | 175225 | 18322214 | 40:42.73 | 1:49.11 | 183223 | 191408
Range status and errors
Selected range
Filename F:\Musique\Kats-Chernin, Elena\Kats_Chernin_WorksForStringQuartet\CD 1\Elena Kats-Chernin - Complete Works for String Quartet (Acacia Quartet) CD 1.wav
Peak level 100.0 %Extraction speed 9.9 XRange quality 99.9 %Copy CRC F887E851Copy OK
No errors occurred
End of status report
==== Log checksum 7EEE6CD8EF37119313BAB72BF35410C65FD616CDAF883874C384DC8627F2CB37 ====

LOG EAC CD2:

Exact Audio Copy V1.0 beta 3 from 29. August 2011
EAC extraction logfile from 8. August 2014, 1:26
Elena Kats-Chernin / Complete Works for String Quartet (Acacia Quartet) CD 2
Used drive : TSSTcorpCDDVDW SH-S223C Adapter: 2 ID: 1
Read mode : SecureUtilize accurate stream : YesDefeat audio cache : YesMake use of C2 pointers : No
Read offset correction : 697Overread into Lead-In and Lead-Out : NoFill up missing offset samples with silence : YesDelete leading and trailing silent blocks : NoNull samples used in CRC calculations : YesUsed interface : Native Win32 interface for Win NT & 2000
Used output format : User Defined EncoderSelected bitrate : 1024 kBit/sQuality : HighAdd ID3 tag : NoCommand line compressor : C:\Program Files (x86)\Exact Audio Copy\FLAC\FLAC.EXEAdditional command line options : -V -0 -T "COMMENT=Ripped by Tapaz9" -T "artist=%artist%" -T "title=%title%" -T "album=%albumtitle%" -T "date=%year%" -T "tracknumber=%tracknr%" -T "genre=%genre%" %source%
TOC of the extracted CD
Track | Start | Length | Start sector | End sector---------------------------------------------------------1 | 0:00.00 | 2:15.09 | 0 | 101332 | 2:15.09 | 3:46.41 | 10134 | 271243 | 6:01.50 | 2:08.28 | 27125 | 367524 | 8:10.03 | 7:01.74 | 36753 | 684015 | 15:12.02 | 3:11.43 | 68402 | 827696 | 18:23.45 | 2:41.30 | 82770 | 948747 | 21:05.00 | 2:55.70 | 94875 | 1080698 | 24:00.70 | 2:47.24 | 108070 | 1206189 | 26:48.19 | 3:03.13 | 120619 | 13435610 | 29:51.32 | 2:15.50 | 134357 | 14453111 | 32:07.07 | 1:13.57 | 144532 | 15006312 | 33:20.64 | 7:14.38 | 150064 | 18265113 | 40:35.27 | 1:42.44 | 182652 | 19034514 | 42:17.71 | 1:35.37 | 190346 | 197507
Range status and errors
Selected range
Filename F:\Musique\Kats-Chernin, Elena\Kats_Chernin_WorksForStringQuartet\CD 2\Elena Kats-Chernin - Complete Works for String Quartet (Acacia Quartet) CD 2.wav
Peak level 100.0 %Extraction speed 11.6 XRange quality 99.9 %Copy CRC FB9A41F9Copy OK
No errors occurred
End of status report
==== Log checksum 03862AFB7EC73EC24A21738E121131303ABD2F18D0874E2F75839445AE9792FC ====



Показать сообщения:    

Текущее время: 03-Дек 18:41

Часовой пояс: UTC + 3


Вы не можете начинать темы
Вы не можете отвечать на сообщения
Вы не можете редактировать свои сообщения
Вы не можете удалять свои сообщения
Вы не можете голосовать в опросах
Вы не можете прикреплять файлы к сообщениям
Вы не можете скачивать файлы