(Classical) Elena Kats-Chernin - Ragtime and Blue (Alexander Rag; Wild Swans, Suite for violin & piano) (Nicola Sweeney, Sarah Nicolls) - 2005, FLAC (image+.cue) lossless


 

[Цитировать]

Elena Kats-Chernin - Ragtime and Blue (Wild Swans, Suite for violin & piano) (Nicola Sweeney feat: Sarah Nicolls)
Жанр: Classical
Год издания диска: 2005
Издатель (лейбл): Signum
Номер по каталогу: 6894676
Дата записи:
Аудиокодек: FLAC
Тип рипа: image+.cue
Битрейт аудио: lossless
Продолжительность: 01:10:01
Источник: скачано из сети
Наличие сканов в содержимом раздачи: да
Исполнители:
Elena Kats-Chernin
Nicola Sweeney - violin
Sarah Nicolls - piano
Треклист:
01. Alexander Rag, for piano [0:02:59.30]
Wild Swans. Suite for violin & piano
02. Green Leaf Prelude [0:02:22.17]
03. Russian Rag [0:04:03.48]
04. Get Well Rag [0:03:42.38]
05. Blue Rose [0:03:15.46]
06. Eliza's Aria [0:03:19.60]
07. Backstage Rag [0:03:52.13]
08. Birthday Rag [0:01:47.08]
09. Brothers [0:01:18.41]
10. Peggy's Minute Rag [0:01:14.23]
11. Reflections [0:02:22.33]
12. Cocktail Rag [0:02:13.48]
13. Butterflying [0:04:24.70]
14. Sunday Rag [0:04:53.33]
15. Nostalgic Piece [0:02:55.70]
16. Bucharian Melody [0:02:44.67]
17. Revolving Doors [0:01:41.39]
18. Suburban Rag [0:03:56.10]
19. Sapphire Rag [0:03:44.67]
20. Tranquil Interlude [0:02:03.47]
21. Mute Princess [0:03:21.35]
22. Slicked Back Tango [0:01:56.52]
23. Removalist Rag [0:03:08.16]
24. Melancholic Piece [0:02:50.08]

LOG EAC

Exact Audio Copy V1.0 beta 3 from 29. August 2011
EAC extraction logfile from 8. August 2014, 0:55
Elena Kats-Chernin / Ragtime and Blue
Used drive : TSSTcorpCDDVDW SH-S223C Adapter: 2 ID: 1
Read mode : SecureUtilize accurate stream : YesDefeat audio cache : YesMake use of C2 pointers : No
Read offset correction : 697Overread into Lead-In and Lead-Out : NoFill up missing offset samples with silence : YesDelete leading and trailing silent blocks : NoNull samples used in CRC calculations : YesUsed interface : Native Win32 interface for Win NT & 2000
Used output format : User Defined EncoderSelected bitrate : 1024 kBit/sQuality : HighAdd ID3 tag : NoCommand line compressor : C:\Program Files (x86)\Exact Audio Copy\FLAC\FLAC.EXEAdditional command line options : -V -0 -T "COMMENT=Ripped by Tapaz9" -T "artist=%artist%" -T "title=%title%" -T "album=%albumtitle%" -T "date=%year%" -T "tracknumber=%tracknr%" -T "genre=%genre%" %source%
TOC of the extracted CD
Track | Start | Length | Start sector | End sector---------------------------------------------------------1 | 0:00.00 | 2:59.30 | 0 | 134542 | 2:59.30 | 2:22.17 | 13455 | 241213 | 5:21.47 | 4:03.48 | 24122 | 423944 | 9:25.20 | 3:42.38 | 42395 | 590825 | 13:07.58 | 3:15.46 | 59083 | 737536 | 16:23.29 | 3:19.60 | 73754 | 887387 | 19:43.14 | 3:52.13 | 88739 | 1061518 | 23:35.27 | 1:47.08 | 106152 | 1141849 | 25:22.35 | 1:18.41 | 114185 | 12007510 | 26:41.01 | 1:14.23 | 120076 | 12564811 | 27:55.24 | 2:22.33 | 125649 | 13633112 | 30:17.57 | 2:13.48 | 136332 | 14635413 | 32:31.30 | 4:24.70 | 146355 | 16622414 | 36:56.25 | 4:53.33 | 166225 | 18823215 | 41:49.58 | 2:55.70 | 188233 | 20142716 | 44:45.53 | 2:44.67 | 201428 | 21379417 | 47:30.45 | 1:41.39 | 213795 | 22140818 | 49:12.09 | 3:56.10 | 221409 | 23911819 | 53:08.19 | 3:44.67 | 239119 | 25598520 | 56:53.11 | 2:03.47 | 255986 | 26525721 | 58:56.58 | 3:21.35 | 265258 | 28036722 | 62:18.18 | 1:56.52 | 280368 | 28911923 | 64:14.70 | 3:08.16 | 289120 | 30323524 | 67:23.11 | 2:50.08 | 303236 | 315993
Range status and errors
Selected range
Filename F:\Musique\Kats-Chernin, Elena\Kats_Chernin_RagtimeAndBlue\Elena Kats-Chernin - Ragtime and Blue.wav
Peak level 91.2 %Extraction speed 13.0 XRange quality 100.0 %Copy CRC 9F0C53CCCopy OK
No errors occurred
End of status report
==== Log checksum C037E5805148B413CB417BC8DD1460749617632DCCF139BC7F4F6C79927ADB86 ====



Показать сообщения:    

Текущее время: 03-Дек 18:42

Часовой пояс: UTC + 3


Вы не можете начинать темы
Вы не можете отвечать на сообщения
Вы не можете редактировать свои сообщения
Вы не можете удалять свои сообщения
Вы не можете голосовать в опросах
Вы не можете прикреплять файлы к сообщениям
Вы не можете скачивать файлы