(Classical) George Enescu - String Octet, Piano Quintet (Gidon Kremer, Kremerata Baltica) - 2002, FLAC (image+.cue) lossless


 

[Цитировать]

George Enescu - String Octet, Piano Quintet (Gidon Kremer, Kremerata Baltica)
Жанр: Classical
Год издания диска: 2002
Издатель (лейбл): Nonesuch
Номер по каталогу: 7559-79682-2
Дата записи: 2000-2001
Аудиокодек: FLAC
Тип рипа: image+.cue
Битрейт аудио: lossless
Продолжительность: 01:12:54
Источник: скачано из сети
Наличие сканов в содержимом раздачи: да
Исполнители:
Kremerata Baltica
Gidon Kremer, Violin
Dzeraldas Bidva, Violin
Ula Ulijona, Viola
Marta Sudraba, Cello
Andrius Zlabys, Piano
Треклист:
String Octet in C major, op.7
01. 1. Très modéré [0:12:07.37]
02. 2. Très fougueux [0:08:24.73]
03. 3. Lentement [0:07:48.52]
04. 4. Moins vite, animé, mouvement de valse bien rythmée [0:09:26.10]
Piano Quintet in A minor, op.29
05. 1a. Con moto molto moderato [0:08:21.45]
06. 1b. Andante sostenuto e cantabile [0:12:47.08]
07. 2a. Vivace, ma non troppo [0:05:08.50]
08. 2b. A tempo, un poco più animato [0:09:05.70]

LOG EAC

Exact Audio Copy V1.0 beta 3 from 29. August 2011
EAC extraction logfile from 10. August 2014, 0:08
George Enescu / String Octet, Piano Quintet (Gidon Kremer, Kremerata Baltica)
Used drive : TSSTcorpCDDVDW SH-S223C Adapter: 2 ID: 1
Read mode : SecureUtilize accurate stream : YesDefeat audio cache : YesMake use of C2 pointers : No
Read offset correction : 697Overread into Lead-In and Lead-Out : NoFill up missing offset samples with silence : YesDelete leading and trailing silent blocks : NoNull samples used in CRC calculations : YesUsed interface : Native Win32 interface for Win NT & 2000
Used output format : User Defined EncoderSelected bitrate : 1024 kBit/sQuality : HighAdd ID3 tag : NoCommand line compressor : C:\Program Files (x86)\Exact Audio Copy\FLAC\FLAC.EXEAdditional command line options : -V -0 -T "COMMENT=Ripped by Tapaz9" -T "artist=%artist%" -T "title=%title%" -T "album=%albumtitle%" -T "date=%year%" -T "tracknumber=%tracknr%" -T "genre=%genre%" %source%
TOC of the extracted CD
Track | Start | Length | Start sector | End sector---------------------------------------------------------1 | 0:00.00 | 12:07.37 | 0 | 545612 | 12:07.37 | 8:24.73 | 54562 | 924343 | 20:32.35 | 7:48.52 | 92435 | 1275864 | 28:21.12 | 9:26.10 | 127587 | 1700465 | 37:47.22 | 8:21.45 | 170047 | 2076666 | 46:08.67 | 12:47.08 | 207667 | 2651997 | 58:56.00 | 5:08.50 | 265200 | 2883498 | 64:04.50 | 9:05.70 | 288350 | 329294
Range status and errors
Selected range
Filename F:\Musique\Enescu, George\Enescu_OctetAndQuintet\George Enescu - String Octet, Piano Quintet (Gidon Kremer, Kremerata Baltica).wav
Peak level 99.9 %Extraction speed 13.1 XRange quality 100.0 %Copy CRC 98BA5BDDCopy OK
No errors occurred
End of status report
==== Log checksum 8367E09006D1194E9E510E7FA9211D734A0F67A5F44218DC000C37935379B18C ====



Показать сообщения:    

Текущее время: 08-Дек 17:25

Часовой пояс: UTC + 3


Вы не можете начинать темы
Вы не можете отвечать на сообщения
Вы не можете редактировать свои сообщения
Вы не можете удалять свои сообщения
Вы не можете голосовать в опросах
Вы не можете прикреплять файлы к сообщениям
Вы не можете скачивать файлы