(Chamber) Даниэль-Лесюр - Средневековая сюита; Йонген - Концерт для пяти; Вестерлинк - Пейзажи; Пелеманс - Квинтет / Daniel-Lesur, Jongen, Westerlinck, Pelemans: Music for Flute, Harp & Strings (Arpea Ensemble) - 1997, FLAC (tracks+.cue) lossless


 

[Цитировать]

Daniel-Lesur, Jongen, Westerlinck, Pelemans - Music for Flute, Harp & String Trio - Arpea Ensemble
Жанр: Chamber
Страна-производитель диска: Belgium
Год издания диска: 1997
Издатель (лейбл): Phaedra
Номер по каталогу: 92012
Дата записи: 1996
Аудиокодек: FLAC
Тип рипа: tracks+.cue
Битрейт аудио: lossless
Продолжительность: 52'34
Источник: скачано с
Наличие сканов в содержимом раздачи: да
Треклист:
Jean-Yves Daniel-Lesur (1908-2002)
Suite Mediviale, for flute, harp, violin, viola & cello (1945)
01 I. Monodie (1:47)
02 II. L'ange Au Sourire (6:01)
03 III. Symphonie (0:50)
04 IV. Complainte (3:29)
05 V. Dance (1:41)
Joseph Jongen ‎(1873-1953)
Concert à Cinq, for flute, harp, violin, viola & cello, Op. 71 (1923)
I. Decide (11:28)
II. Calme (6:15)
III. Tres Decide (5:56)
Wilfried Westerlinck (b.1945)
Landscapes IV, for flute, harp & string trio (1981) (10:09)
Willem Pelemans (1901-1991)
Harp Quintet (1962) (4:54)
Исполнители:
Arpea Ensemble

Лог создания рипа

Exact Audio Copy V1.0 beta 3 from 29. August 2011
EAC extraction logfile from 4. August 2013, 16:32
Arpea Ensemble / Music for harp, flute, violin, viola and cello
Used drive : HL-DT-STDVD+-RW GHA2N Adapter: 0 ID: 0
Read mode : SecureUtilize accurate stream : YesDefeat audio cache : YesMake use of C2 pointers : No
Read offset correction : 667Overread into Lead-In and Lead-Out : NoFill up missing offset samples with silence : YesDelete leading and trailing silent blocks : NoNull samples used in CRC calculations : YesUsed interface : Native Win32 interface for Win NT & 2000Gap handling : Appended to previous track
Used output format : User Defined EncoderSelected bitrate : 896 kBit/sQuality : HighAdd ID3 tag : NoCommand line compressor : C:\Program Files (x86)\Exact Audio Copy\Flac\flac.exeAdditional command line options : -8 -V -T "ARTIST=%artist%" -T "TITLE=%title%" -T "ALBUM=%albumtitle%" -T "DATE=%year%" -T "TRACKNUMBER=%tracknr%" -T "GENRE=%genre%" -T "PERFORMER=%albuminterpret%" -T "COMPOSER=%composer%" %haslyrics%--tag-from-file=LYRICS="%lyricsfile%"%haslyrics% -T "ALBUMARTIST=%albumartist%" -T "DISCNUMBER=%cdnumber%" -T "TOTALDISCS=%totalcds%" -T "TOTALTRACKS=%numtracks%" -T "COMMENT=%comment%" %source% -o %dest%
TOC of the extracted CD
Track | Start | Length | Start sector | End sector --------------------------------------------------------- 1 | 0:00.30 | 1:47.46 | 30 | 8100 2 | 1:48.01 | 6:01.34 | 8101 | 35209 3 | 7:49.35 | 0:50.71 | 35210 | 39030 4 | 8:40.31 | 3:29.34 | 39031 | 54739 5 | 12:09.65 | 1:41.20 | 54740 | 62334 6 | 13:51.10 | 11:28.55 | 62335 | 113989 7 | 25:19.65 | 6:15.05 | 113990 | 142119 8 | 31:34.70 | 5:56.36 | 142120 | 168855 9 | 37:31.31 | 10:09.46 | 168856 | 214576 10 | 47:41.02 | 4:54.57 | 214577 | 236683
Track 1
Filename C:\What CD\European Episode\01 Monodie - Suite Mediviale.wav
Pre-gap length 0:00:02.40
Peak level 35.9 % Extraction speed 1.5 X Track quality 100.0 % Test CRC CA073E4A Copy CRC CA073E4A Track not present in AccurateRip database Copy OK
Track 2
Filename C:\What CD\European Episode\02 L'ange Au Sourire - Suite Mediviale.wav
Peak level 94.6 % Extraction speed 2.1 X Track quality 100.0 % Test CRC AB1EE01B Copy CRC AB1EE01B Track not present in AccurateRip database Copy OK
Track 3
Filename C:\What CD\European Episode\03 Symphonie - Suite Mediviale.wav
Peak level 84.3 % Extraction speed 1.4 X Track quality 100.0 % Test CRC 52DAF934 Copy CRC 52DAF934 Track not present in AccurateRip database Copy OK
Track 4
Filename C:\What CD\European Episode\04 Complainte - Suite Mediviale.wav
Peak level 28.4 % Extraction speed 1.9 X Track quality 99.9 % Test CRC D60321CB Copy CRC D60321CB Track not present in AccurateRip database Copy OK
Track 5
Filename C:\What CD\European Episode\05 Dance - Suite Mediviale.wav
Peak level 25.4 % Extraction speed 1.5 X Track quality 99.8 % Test CRC 7CF8CB6E Copy CRC 7CF8CB6E Track not present in AccurateRip database Copy OK
Track 6
Filename C:\What CD\European Episode\06 Decide - Concert A Cinq.wav
Peak level 77.7 % Extraction speed 2.9 X Track quality 100.0 % Test CRC 0917EADC Copy CRC 0917EADC Track not present in AccurateRip database Copy OK
Track 7
Filename C:\What CD\European Episode\07 Calme - Concert A Cinq.wav
Peak level 40.9 % Extraction speed 3.0 X Track quality 100.0 % Test CRC C7706E26 Copy CRC C7706E26 Track not present in AccurateRip database Copy OK
Track 8
Filename C:\What CD\European Episode\08 Tres Decide - Concert A Cinq.wav
Peak level 94.3 % Extraction speed 3.2 X Track quality 100.0 % Test CRC 43F12291 Copy CRC 43F12291 Track not present in AccurateRip database Copy OK
Track 9
Filename C:\What CD\European Episode\09 Landschappen IV.wav
Peak level 97.2 % Extraction speed 3.6 X Track quality 100.0 % Test CRC 4EBBD574 Copy CRC 4EBBD574 Track not present in AccurateRip database Copy OK
Track 10
Filename C:\What CD\European Episode\10 Harp Kwintet.wav
Peak level 73.9 % Extraction speed 3.6 X Track quality 100.0 % Test CRC 5AC76209 Copy CRC 5AC76209 Track not present in AccurateRip database Copy OK
None of the tracks are present in the AccurateRip database
No errors occurred
End of status report
==== Log checksum E4606258225FB3A8E9BC89F15E644F869EFCB26B55D962229BA87187DF3DFD56 ====

Содержание индексной карты (.CUE)

REM GENRE ClassicalREM DATE 1996REM DISCID 720C530AREM COMMENT "ExactAudioCopy v1.0b3"PERFORMER "Arpea Ensemble"TITLE "Music for harp, flute, violin, viola and cello"FILE "01 Monodie - Suite Mediviale.wav" WAVE TRACK 01 AUDIO TITLE "Monodie - Suite Mediviale" PERFORMER "Arpea Ensemble" PREGAP 00:00:30 INDEX 01 00:00:00FILE "02 L'ange Au Sourire - Suite Mediviale.wav" WAVE TRACK 02 AUDIO TITLE "L'ange Au Sourire - Suite Mediviale" PERFORMER "Arpea Ensemble" INDEX 01 00:00:00FILE "03 Symphonie - Suite Mediviale.wav" WAVE TRACK 03 AUDIO TITLE "Symphonie - Suite Mediviale" PERFORMER "Arpea Ensemble" INDEX 01 00:00:00FILE "04 Complainte - Suite Mediviale.wav" WAVE TRACK 04 AUDIO TITLE "Complainte - Suite Mediviale" PERFORMER "Arpea Ensemble" INDEX 01 00:00:00FILE "05 Dance - Suite Mediviale.wav" WAVE TRACK 05 AUDIO TITLE "Dance - Suite Mediviale" PERFORMER "Arpea Ensemble" INDEX 01 00:00:00FILE "06 Decide - Concert A Cinq.wav" WAVE TRACK 06 AUDIO TITLE "Decide - Concert A Cinq" PERFORMER "Arpea Ensemble" INDEX 01 00:00:00FILE "07 Calme - Concert A Cinq.wav" WAVE TRACK 07 AUDIO TITLE "Calme - Concert A Cinq" PERFORMER "Arpea Ensemble" INDEX 01 00:00:00FILE "08 Tres Decide - Concert A Cinq.wav" WAVE TRACK 08 AUDIO TITLE "Tres Decide - Concert A Cinq" PERFORMER "Arpea Ensemble" INDEX 01 00:00:00FILE "09 Landschappen IV.wav" WAVE TRACK 09 AUDIO TITLE "Landschappen IV" PERFORMER "Arpea Ensemble" INDEX 01 00:00:00FILE "10 Harp Kwintet.wav" WAVE TRACK 10 AUDIO TITLE "Harp Kwintet" PERFORMER "Arpea Ensemble" INDEX 01 00:00:00
Доп. информация: Серия дисков "Во Фландрийских полях"издаваемая лейблом Phaedra, знакомит слушателей с творчеством бельгийских композиторов и малоизвестными, но весьма интересными сочинениями. На этом CD представлены сочинения Жана Ива Даниэля-Лесюра, Жозефа Йонгена, Уилфреда Вестерлинга и Виллема Пелеманса для флейты, арфы и струнного трио в исполнении камерного коллектива Arpea Ensemble.

О композиторах и Сочинениях

Жан Ив Даниэль-Лесюр (1908-2002) - французский композитор, ученик Шарля Турнемира, профессор Схола Канторум и Парижской консерватории. В 1936м вместе с Оливье Мессианом (своим одноклассником и другом на всю жизнь), Андре Жоливе и Ивом Бодрие основал творческую группу "Молодая Франция". Их целью было, "продолжая дело своих великих предшественников, создавать и способствовать созданию живой музыки." Как композитор сочетает экспрессивность музыкального языка с ясностью и изяществом стиля, свойственым французской музыкальной традиции - модальность, и все, что с ней связано – диатоника, старинные народные лады, древние интонационные формулы (в этом он следовал за Дебюсси, Равелем, Стравинским, Бартоком). Лесюр неоднократно бывал в России и высоко ценил традиции русской музыки. Отвечая на вопрос о том, кого из композиторов он больше всего ценит, Лесюр ответил: «Для меня самыми великими музыкантами являются три «М»: Моцарт, Мусоргский и Монтеверди». Здесь представлено одно из наиболее популярных его сочинений "Средневековая сюита" для флейты, арфы и струнного трио (1945) - великолепная стилизация по мотивам средневековых мелодий.
Жозеф Йонген (1873-1953) - бельгийский композитор, директор Брюссельской консерватории. В Бельгии начала века различались две композиторские школы: фламандская, тяготевшая к Вагнеру, и валлонская, для которой образцом была французская музыка. Жозеф Йонген был единственным всемирно известным валлоном и в своей музыке продолжал романтические традиции своего земляка Сезара Франка, Габриэля Форе и импрессионистов. "Концерт для пяти" для флейты, арфы, скрипки, альта и виолончели (1923) считается одним из лучших сочинений этого жанра. Музыка сочинения интересна выразительной мелодикой народного склада, тонкостью гармонического языка близкой к французскому стилю, и не менее красива и изящна, чем музыка Дебюсси и Равеля.
Уилфред Вестерлинг (р.1945) - мастер бельгийского пост-модерна. Его композиция из серии "Пейзажи" (1981) хоть и сочетает элементы серийности и битональности, атональные аккорды и хроматические кластеры, но в отличие от немцев, Вестерлинг избегает контрапункта и нетрадиционных методов звукоизвлечения, ставя лирику и заботу о красочности и тембре во главу угла.
Завершает диск миниатюрный Арфовый квинтет 1962г. бельгийского традиционалиста, председателя Союза Бельгийских композиторов Виллема Пелеманса (1901-1991) - нео-романтическая вещь c цитатами из старо-голландских песен и танцев в стилистике сочетающей т.н. "Фламандский сентиментальный академизм" с влияниями новой простоты, Сати и Онеггера.



Показать сообщения:    

Текущее время: 09-Дек 10:43

Часовой пояс: UTC + 3


Вы не можете начинать темы
Вы не можете отвечать на сообщения
Вы не можете редактировать свои сообщения
Вы не можете удалять свои сообщения
Вы не можете голосовать в опросах
Вы не можете прикреплять файлы к сообщениям
Вы не можете скачивать файлы