(Classical) Johann Sebastian Bach - Sonatas for Viola da gamba and Harpsichord - Bettina Hoffmann, Alfonso Fedi - 1995, FLAC (image+.cue) lossless


 

[Цитировать]

Johann Sebastian Bach - Sonatas for Viola da gamba and Harpsichord - Bettina Hoffmann, Alfonso Fedi
Жанр: Classical
Страна-производитель диска: Germany
Год издания диска: 1995
Издатель (лейбл): Arts Music
Номер по каталогу: 47252-2
Дата записи: 1994
Аудиокодек: FLAC
Тип рипа: image+.cue
Битрейт аудио: lossless
Продолжительность: 41:20
Источник: собственный рип
Наличие сканов в содержимом раздачи: да
Треклист:
Johann Sebastian Bach (1685-1750)
[1]-[4] Sonata in D major, BWV 1028
[5]-[8] Sonata in G major, BWV 1027
[9]-[11] Sonata in G minor, BWV 1029
Исполнители:
Bettina Hoffmann viola da gamba
Alfonso Fedi harpsichord

Лог создания рипа

Exact Audio Copy V1.0 beta 3 from 29. August 2011
EAC extraction logfile from 22. June 2014, 20:25
Bettina Hoffmann, Alfonso Fedi / Bach - Sonatas for Viola da gamba and Harpsichord
Used drive : HL-DT-STDVDRAM GSA-4083N Adapter: 1 ID: 0
Read mode : SecureUtilize accurate stream : YesDefeat audio cache : YesMake use of C2 pointers : No
Read offset correction : 667Overread into Lead-In and Lead-Out : NoFill up missing offset samples with silence : YesDelete leading and trailing silent blocks : NoNull samples used in CRC calculations : YesUsed interface : Native Win32 interface for Win NT & 2000
Used output format : User Defined EncoderSelected bitrate : 896 kBit/sQuality : HighAdd ID3 tag : NoCommand line compressor : C:\Program Files\Exact Audio Copy\Flac\flac.exeAdditional command line options : -V -8 %source%
TOC of the extracted CD
Track | Start | Length | Start sector | End sector --------------------------------------------------------- 1 | 0:00.32 | 1:53.13 | 32 | 8519 2 | 1:53.45 | 3:40.35 | 8520 | 25054 3 | 5:34.05 | 4:15.62 | 25055 | 44241 4 | 9:49.67 | 3:59.63 | 44242 | 62229 5 | 13:49.55 | 3:56.50 | 62230 | 79979 6 | 17:46.30 | 3:32.37 | 79980 | 95916 7 | 21:18.67 | 2:04.50 | 95917 | 105266 8 | 23:23.42 | 3:06.58 | 105267 | 119274 9 | 26:30.25 | 5:06.17 | 119275 | 142241 10 | 31:36.42 | 5:44.03 | 142242 | 168044 11 | 37:20.45 | 3:31.62 | 168045 | 183931
Range status and errors
Selected range
Filename J:\New Music\Bach - Sonatas for Viola da gamba and Harpsichord\Bach - Sonatas for Viola da gamba and Harpsichord.wav
Peak level 59.0 % Extraction speed 3.1 X Range quality 100.0 % Test CRC 2D521B28 Copy CRC 2D521B28 Copy OK
No errors occurred
AccurateRip summary
Track 1 accurately ripped (confidence 1) [4008CEED] (AR v2)Track 2 accurately ripped (confidence 1) [87878B49] (AR v2)Track 3 accurately ripped (confidence 1) [CB0FC107] (AR v2)Track 4 accurately ripped (confidence 1) [84F77693] (AR v2)Track 5 accurately ripped (confidence 1) [18DB9C15] (AR v2)Track 6 accurately ripped (confidence 1) [D3CDF97A] (AR v2)Track 7 accurately ripped (confidence 1) [A57B3961] (AR v2)Track 8 accurately ripped (confidence 1) [628E2D40] (AR v2)Track 9 accurately ripped (confidence 1) [03367A1E] (AR v2)Track 10 accurately ripped (confidence 1) [88167FCE] (AR v2)Track 11 accurately ripped (confidence 1) [6E696ACF] (AR v2)
All tracks accurately ripped
End of status report
==== Log checksum 2EEF12A1DA4ECAA38A7D8FDC479B464D91FF64A32EA813819E13FEB10B9A03E1 ====



Показать сообщения:    

Текущее время: 08-Дек 19:10

Часовой пояс: UTC + 3


Вы не можете начинать темы
Вы не можете отвечать на сообщения
Вы не можете редактировать свои сообщения
Вы не можете удалять свои сообщения
Вы не можете голосовать в опросах
Вы не можете прикреплять файлы к сообщениям
Вы не можете скачивать файлы