(Classical) Telemann - Don Quixote; Table Music; Concerto for oboe, strings and harpsichord (Владимир Курлин;Ленинградский камерный оркестр/Лазарь Гозман) - 2003, WavPack (iso.wv) lossless


 

[Цитировать]

Telemann - Don Quixote; Table Music; Concerto for oboe, strings and harpsichord
(Владимир Курлин;Ленинградский камерный оркестр/Лазарь Гозман)
Georg Philipp Telemann (1681-1767) Жанр: Classical
Страна-производитель диска: Россия
Год издания диска: 2003
Издатель (лейбл): Manchester Files
Номер по каталогу: CDMAN 171
Дата записи: 1967, 1977
Аудиокодек: WavPack
Тип рипа: iso.wv
Битрейт аудио: lossless
Продолжительность: 0:56:05
Источник: shatterhand
Наличие сканов в содержимом раздачи: да
Треклист:
Suite Don Quixote
01. Awakening of Don Quixote (8:20)
02. Struggling with Windmills (2:28)
03. Amorous Sighs for Princess Aline (3:25)
04. The Deceived Sancho Panza (2:15)
05. Rossinant's Gallop and Sancho Panza's Donkey's Gallop (2:36)
06. Don Quixote's Rest (1:24)
Suite from Table Music cycle
07. Overture (6:57)
08. Pastorale (3:00)
09. Merriment (2:27)
10. Coachmen (2:10)
11. Delight (3:35)
12. Joke (3:09)
13. Minuet (2:32)
14. Finale (2:25)
Concerto for oboe, strings and harpsichord in F minor
15. I. Allegro (3:37)
16. II. Largo e piano (3:40)
17. III. Vivace (2:05)
Исполнители:
Владимир Курлин, гобой (15-17)
Ленинградский камерный оркестр,
дирижер Лазарь Гозман

Перечень файлов (содержимое) контейнера в текстовом виде.

1. Содержимое CUE-файла.
2. Отчёт ЕАС.
3. Аудиофайл (.wv)
4. Сканы: буклет, диск, (полные) JPG;
5. тех. данные
6. Сканы front, CD, Back формат jpeg

Лог создания рипа

Exact Audio Copy V0.99 prebeta 5 from 4. May 2009
Отчёт EAC об извлечении, выполненном 18. января 2010, 14:26
Ленинградский камерный оркестр / Телеман. Дон Кихот. Застольная музыка
Дисковод: ATAPI DVD A DH16A3L Adapter: 1 ID: 0
Режим чтения : ДостоверностьИспользование точного потока : ДаОтключение кэша аудио : ДаИспользование указателей C2 : Нет
Комбинированное смещение чтения/записи : 6Способность читать области Lead-in и Lead-out : НетЗаполнение пропущенных сэмплов тишиной : ДаУдаление блоков с тишиной в начале и конце : НетПри вычислениях CRC использовались нулевые сэмплы : ДаИнтерфейс : Встроенный Win32-интерфейс для Win NT/2000
Выходной формат : Внутренние WAV-операцииФормат сэмплов : 44.100 Гц; 16 бит; стерео
TOC извлечённого CD
Трек | Старт | Длительность | Начальный сектор | Конечный сектор --------------------------------------------------------------------- 1 | 0:00.00 | 8:20.04 | 0 | 37503 2 | 8:20.04 | 2:28.04 | 37504 | 48607 3 | 10:48.08 | 3:25.48 | 48608 | 64030 4 | 14:13.56 | 2:15.14 | 64031 | 74169 5 | 16:28.70 | 2:36.36 | 74170 | 85905 6 | 19:05.31 | 1:24.49 | 85906 | 92254 7 | 20:30.05 | 6:57.73 | 92255 | 123602 8 | 27:28.03 | 3:00.13 | 123603 | 137115 9 | 30:28.16 | 2:27.58 | 137116 | 148198 10 | 32:55.74 | 2:10.16 | 148199 | 157964 11 | 35:06.15 | 3:35.05 | 157965 | 174094 12 | 38:41.20 | 3:09.53 | 174095 | 188322 13 | 41:50.73 | 2:32.51 | 188323 | 199773 14 | 44:23.49 | 2:25.37 | 199774 | 210685 15 | 46:49.11 | 3:37.21 | 210686 | 226981 16 | 50:26.32 | 3:40.57 | 226982 | 243538 17 | 54:07.14 | 2:05.41 | 243539 | 252954
Характеристики диапазона извлечения и сообщения об ошибках
Выбранный диапазон
Имя файла C:\Tmp\Music\teleman\Ленинградский камерный оркестр - Телеман. Дон Кихот. Застольная музыка.wav
Пиковый уровень 96.7 % Качество диапазона 100.0 % CRC теста 2285F2BB CRC копии 2285F2BB Копирование... OK
Ошибок не произошло
Конец отчёта

Содержание индексной карты (.CUE)

REM GENRE "Classical"REM DATE 2003REM DISCID DA0D2C11REM COMMENT "ExactAudioCopy v0.99pb5"REM ACCURATERIPID 00259faf-01cde637-da0d2c11PERFORMER "Ленинградский камерный оркестр"TITLE "Телеман. Дон Кихот. Застольная музыка"FILE "Leningradskij kamernyj orkestr - Teleman. Don Kihot. Zastol'naya muzyka [2003].wv" WAVE TRACK 01 AUDIO TITLE "Сюита Дон Кихот. Пробуждение Дон Кихота" PERFORMER "Ленинградский камерный оркестр" FLAGS DCP INDEX 01 00:00:00 TRACK 02 AUDIO TITLE "Сюита Дон Кихот. Борьба С Ветряными Мельницами" PERFORMER "Ленинградский камерный оркестр" FLAGS DCP INDEX 00 08:18:15 INDEX 01 08:20:04 TRACK 03 AUDIO TITLE "Сюита Дон Кихот. Любовные Вздохи По Принцессе Алине" PERFORMER "Ленинградский камерный оркестр" FLAGS DCP INDEX 00 10:46:14 INDEX 01 10:48:08 TRACK 04 AUDIO TITLE "Сюита Дон Кихот. Обманутый Санчо Панса" PERFORMER "Ленинградский камерный оркестр" FLAGS DCP INDEX 00 14:11:72 INDEX 01 14:13:56 TRACK 05 AUDIO TITLE "Сюита Дон Кихот. Галоп Россинанта И Галоп Осла Санчо Панса" PERFORMER "Ленинградский камерный оркестр" FLAGS DCP INDEX 00 16:26:44 INDEX 01 16:28:70 TRACK 06 AUDIO TITLE "Сюита Дон Кихот. Отдых Дон Кихота" PERFORMER "Ленинградский камерный оркестр" FLAGS DCP INDEX 00 19:03:07 INDEX 01 19:05:31 TRACK 07 AUDIO TITLE "Сюита Из Цикла Застольная Музыка. Увертюра" PERFORMER "Ленинградский камерный оркестр" FLAGS DCP INDEX 00 20:24:03 INDEX 01 20:30:05 TRACK 08 AUDIO TITLE "Сюита Из Цикла Застольная Музыка. Пастораль" PERFORMER "Ленинградский камерный оркестр" FLAGS DCP INDEX 00 27:26:09 INDEX 01 27:28:03 TRACK 09 AUDIO TITLE "Сюита Из Цикла Застольная Музыка. Веселье" PERFORMER "Ленинградский камерный оркестр" FLAGS DCP INDEX 00 30:26:24 INDEX 01 30:28:16 TRACK 10 AUDIO TITLE "Сюита Из Цикла Застольная Музыка. Ямщики" PERFORMER "Ленинградский камерный оркестр" FLAGS DCP INDEX 00 32:54:35 INDEX 01 32:55:74 TRACK 11 AUDIO TITLE "Сюита Из Цикла Застольная Музыка. Наслаждение" PERFORMER "Ленинградский камерный оркестр" FLAGS DCP INDEX 00 35:04:33 INDEX 01 35:06:15 TRACK 12 AUDIO TITLE "Сюита Из Цикла Застольная Музыка. Шутка" PERFORMER "Ленинградский камерный оркестр" FLAGS DCP INDEX 00 38:39:16 INDEX 01 38:41:20 TRACK 13 AUDIO TITLE "Сюита Из Цикла Застольная Музыка. Менуэт" PERFORMER "Ленинградский камерный оркестр" FLAGS DCP INDEX 00 41:48:74 INDEX 01 41:50:73 TRACK 14 AUDIO TITLE "Сюита Из Цикла Застольная Музыка. Финал" PERFORMER "Ленинградский камерный оркестр" FLAGS DCP INDEX 00 44:22:10 INDEX 01 44:23:49 TRACK 15 AUDIO TITLE "Концерт Для Гобоя, Струнных И Чембало Фа Минор. Allegro" PERFORMER "Ленинградский камерный оркестр" FLAGS DCP INDEX 00 46:41:42 INDEX 01 46:49:11 TRACK 16 AUDIO TITLE "Концерт Для Гобоя, Струнных И Чембало Фа Минор. Largo E Piano" PERFORMER "Ленинградский камерный оркестр" FLAGS DCP INDEX 00 50:24:33 INDEX 01 50:26:32 TRACK 17 AUDIO TITLE "Концерт Для Гобоя, Струнных И Чембало Фа Минор. Vivace" PERFORMER "Ленинградский камерный оркестр" FLAGS DCP INDEX 01 54:07:14

Лог проверки качества

Скриншот спектра частот




Показать сообщения:    

Текущее время: 10-Дек 02:09

Часовой пояс: UTC + 3


Вы не можете начинать темы
Вы не можете отвечать на сообщения
Вы не можете редактировать свои сообщения
Вы не можете удалять свои сообщения
Вы не можете голосовать в опросах
Вы не можете прикреплять файлы к сообщениям
Вы не можете скачивать файлы