(Classical) Marin Marais - 'La Folia' and other music for viols and violins - The Purcell Quartet, William Hunt - 2007, FLAC (image+.cue) lossless


 

[Цитировать]

Marin Marais - 'La Folia' and other music for viols and violins - The Purcell Quartet, William Hunt
Жанр: Classical
Страна-производитель диска: UK
Год издания диска: 2007
Издатель (лейбл): Hyperion
Номер по каталогу: CDH55235
Дата записи: 1988
Аудиокодек: FLAC
Тип рипа: image+.cue
Битрейт аудио: lossless
Продолжительность: 61:11
Источник: собственный рип
Наличие сканов в содержимом раздачи: да
Треклист:
Marin Marais (1656-1728)
[1]-[8] Suite in C major from Pièces en trio
[9]-[13] Suite in D major from Pièces de viole
[14]-[19] Suite in E minor from Pièces en trio
[20] Les folies d'Espagne
Исполнители:
The Purcell Quartet
Catherine Mackintosh violin
Elizabeth Wallfisch violin
Richard Boothby viola da gamba
Robert Woolley harpsichord
with
William Hunt viola da gamba

Лог создания рипа

Exact Audio Copy V1.0 beta 3 from 29. August 2011
EAC extraction logfile from 5. July 2014, 1:49
The Purcell Quartet, William Hunt / Marais - La Folia and other music for viols and violins
Used drive : HL-DT-STDVDRAM GU70N Adapter: 0 ID: 0
Read mode : SecureUtilize accurate stream : YesDefeat audio cache : YesMake use of C2 pointers : No
Read offset correction : 48Overread into Lead-In and Lead-Out : NoFill up missing offset samples with silence : YesDelete leading and trailing silent blocks : NoNull samples used in CRC calculations : YesUsed interface : Native Win32 interface for Win NT & 2000
Used output format : User Defined EncoderSelected bitrate : 128 kBit/sQuality : HighAdd ID3 tag : NoCommand line compressor : C:\Program Files (x86)\Exact Audio Copy\Flac\flac.exeAdditional command line options : -V -8 -T "Date=%year%" -T "Genre=%genre%" %source%
TOC of the extracted CD
Track | Start | Length | Start sector | End sector --------------------------------------------------------- 1 | 0:00.00 | 2:06.00 | 0 | 9449 2 | 2:06.00 | 1:37.08 | 9450 | 16732 3 | 3:43.08 | 1:37.65 | 16733 | 24072 4 | 5:20.73 | 1:56.37 | 24073 | 32809 5 | 7:17.35 | 1:25.18 | 32810 | 39202 6 | 8:42.53 | 0:55.05 | 39203 | 43332 7 | 9:37.58 | 1:15.25 | 43333 | 48982 8 | 10:53.08 | 8:31.07 | 48983 | 87314 9 | 19:24.15 | 1:31.25 | 87315 | 94164 10 | 20:55.40 | 0:43.40 | 94165 | 97429 11 | 21:39.05 | 2:32.13 | 97430 | 108842 12 | 24:11.18 | 4:19.67 | 108843 | 128334 13 | 28:31.10 | 2:26.55 | 128335 | 139339 14 | 30:57.65 | 2:50.53 | 139340 | 152142 15 | 33:48.43 | 1:53.10 | 152143 | 160627 16 | 35:41.53 | 1:52.20 | 160628 | 169047 17 | 37:33.73 | 0:40.57 | 169048 | 172104 18 | 38:14.55 | 2:42.58 | 172105 | 184312 19 | 40:57.38 | 3:38.52 | 184313 | 200714 20 | 44:36.15 | 16:32.65 | 200715 | 275179
Range status and errors
Selected range
Filename C:\temp\Marais - La Folia and other music for viols and violins\Marais - La Folia and other music for viols and violins.wav
Peak level 100.0 % Extraction speed 5.2 X Range quality 100.0 % Test CRC E996DFBE Copy CRC E996DFBE Copy OK
No errors occurred
AccurateRip summary
Track 1 cannot be verified as accurate (confidence 2) [96310409], AccurateRip returned [3413CE3B] (AR v2)Track 2 cannot be verified as accurate (confidence 2) [2AFDAC32], AccurateRip returned [6B66CB91] (AR v2)Track 3 cannot be verified as accurate (confidence 2) [BFF75B5F], AccurateRip returned [66E05B6F] (AR v2)Track 4 cannot be verified as accurate (confidence 2) [02B5694F], AccurateRip returned [7A4E80C0] (AR v2)Track 5 cannot be verified as accurate (confidence 2) [D7F65616], AccurateRip returned [84DC2D63] (AR v2)Track 6 cannot be verified as accurate (confidence 2) [196888F4], AccurateRip returned [8AF2584B] (AR v2)Track 7 cannot be verified as accurate (confidence 2) [497AE7BF], AccurateRip returned [35F3DD13] (AR v2)Track 8 cannot be verified as accurate (confidence 2) [70873AA0], AccurateRip returned [756D9BCA] (AR v2)Track 9 cannot be verified as accurate (confidence 2) [91944E27], AccurateRip returned [3B487D38] (AR v2)Track 10 cannot be verified as accurate (confidence 2) [5E366F37], AccurateRip returned [DACC5530] (AR v2)Track 11 cannot be verified as accurate (confidence 2) [90102641], AccurateRip returned [639BCC0F] (AR v2)Track 12 cannot be verified as accurate (confidence 2) [A012464D], AccurateRip returned [44C33A6E] (AR v2)Track 13 cannot be verified as accurate (confidence 2) [46D6A56A], AccurateRip returned [14BFB6B1] (AR v2)Track 14 cannot be verified as accurate (confidence 2) [701A1664], AccurateRip returned [73AA91BC] (AR v2)Track 15 cannot be verified as accurate (confidence 2) [B5E65473], AccurateRip returned [D8F1205B] (AR v2)Track 16 cannot be verified as accurate (confidence 2) [D60B5A31], AccurateRip returned [E23913CF] (AR v2)Track 17 cannot be verified as accurate (confidence 2) [34C2948C], AccurateRip returned [95046FEF] (AR v2)Track 18 cannot be verified as accurate (confidence 2) [672CEDAC], AccurateRip returned [4AF6B63E] (AR v2)Track 19 cannot be verified as accurate (confidence 2) [CE4678A7], AccurateRip returned [0CD3AA66] (AR v2)Track 20 accurately ripped (confidence 2) [F9226A03] (AR v1)
1 track(s) accurately ripped19 track(s) could not be verified as accurate
Some tracks could not be verified as accurate
End of status report
==== Log checksum D808FCC75B0E177DF417C6BB33D1D619B466041530FB9C50AAC2F95087736A7A ====



Показать сообщения:    

Текущее время: 05-Дек 13:26

Часовой пояс: UTC + 3


Вы не можете начинать темы
Вы не можете отвечать на сообщения
Вы не можете редактировать свои сообщения
Вы не можете удалять свои сообщения
Вы не можете голосовать в опросах
Вы не можете прикреплять файлы к сообщениям
Вы не можете скачивать файлы