(Classical) Шостакович - Фортепианный квинтет Op. 57, Фортепианное трио №2 Op. 67 / Shostakovich - Piano Trio No.2 & Quintet (Трио им. Бородина - Дубинский,Туровский,Едлина,Borodin Trio,Mimi Zweig,Jerry Horner) - 1983, FLAC (image+.cue) lossless


 

[Цитировать]

Шостакович - Фортепианный квинтет Op. 57, Фортепианное трио №2 Op. 67 (Трио им. Бородина - Ростислав Дубинский, Юлий Туровский, Любовь Едлина, Mimi Zweig, Jerry Horner)
Жанр: Classical/Chamber
Страна-производитель диска: EU
Год издания диска: 1983
Издатель (лейбл): Chandos
Номер по каталогу: CHAN 8342
Дата записи: 1983
Аудиокодек: FLAC
Тип рипа: image+.cue
Битрейт аудио: lossless
Продолжительность: 65:35
Источник: собственный рип
Наличие сканов в содержимом раздачи: да
Треклист:
Дмитрий Шостакович / Dmitri Shostakovich
Piano Quintet in G minor Op. 57 35:54
1 I. Prelude (Lento) 04:44
2 II. Fugue (Adagio) 12:13
3 III. Scherzo (Allegretto) 03:47
4 IV. Intermezzo (Lento) 07:21
5 V. Finale (Allegretto) 07:34
Piano Trio No. 2 in E minor Op. 67 29:33
6 I. Andante - Moderato 08:14
7 II. Allegro non troppo 03:33
8 III. Largo - 06:06
9 IV. Allegretto 11:26
Исполнители:
Jerry Horner viola
Mimi Zweig violin
The Borodin Trio:
Любовь Едлина / Luba Edlina piano
Ростислав Дубинский / Rostislav Dubinsky violin
Юлий Туровский / Yuli Turovsky cello

Лог создания рипа

Exact Audio Copy V1.0 beta 3 from 29. August 2011
Отчёт EAC об извлечении, выполненном 8. июня 2014, 21:43
The Borodin Trio, Mimi Zweig, Jerry Horner / Shostakovich - Piano Quintet Op.57 & Trio No.2 Op.67
Дисковод: HL-DT-STDVDRAM GU71N Adapter: 2 ID: 0
Режим чтения : ДостоверностьИспользование точного потока : ДаОтключение кэша аудио : ДаИспользование указателей C2 : Нет
Коррекция смещения при чтении : 6Способность читать области Lead-in и Lead-out : НетЗаполнение пропущенных сэмплов тишиной : ДаУдаление блоков с тишиной в начале и конце : НетПри вычислениях CRC использовались нулевые сэмплы : ДаИнтерфейс : Встроенный Win32-интерфейс для Win NT/2000
Выходной формат : Пользовательский кодировщикВыбранный битрейт : 1024 kBit/sКачество : ВысокийДобавление ID3-тега : НетУтилита сжатия : C:\Program Files (x86)\Exact Audio Copy\Flac\flac.exeДополнительные параметры : -8 -V -T "ALBUMARTIST=%albumartist%" -T "ALBUM=%albumtitle%" -T "DATE=%year%" -T "TRACKTOTAL=%numtracks%" -T "GENRE=%genre%" -T "COMMENT=%comment%" -T "PERFORMER=%albuminterpret%" -T "COMPOSER=%composer%" %source% -o %dest%
TOC извлечённого CD
Трек | Старт | Длительность | Начальный сектор | Конечный сектор --------------------------------------------------------------------- 1 | 0:00.32 | 4:48.73 | 32 | 21704 2 | 4:49.30 | 12:16.42 | 21705 | 76946 3 | 17:05.72 | 3:52.68 | 76947 | 94414 4 | 20:58.65 | 7:21.45 | 94415 | 127534 5 | 28:20.35 | 7:44.07 | 127535 | 162341 6 | 36:04.42 | 8:20.03 | 162342 | 199844 7 | 44:24.45 | 3:40.67 | 199845 | 216411 8 | 48:05.37 | 6:06.48 | 216412 | 243909 9 | 54:12.10 | 11:30.35 | 243910 | 295694
Характеристики диапазона извлечения и сообщения об ошибках
Выбранный диапазон
Имя файла H:\Rips\Shostakovich - Piano Quintet Op.57 & Trio No.2 Op.67 - The Borodin Trio, Mimi Zweig, Jerry Horner CHAN 8342\Shostakovich - Piano Quintet Op.57 & Trio No.2 Op.67.wav
Пиковый уровень 100.0 % Скорость извлечения 2.1 X Качество диапазона 100.0 % CRC теста 7917A359 CRC копии 7917A359 Копирование... OK
Ошибок не произошло
AccurateRip: сводка
Трек 1 : извлечено точно (доверие 2) [28682779] (AR v1)Трек 2 : извлечено точно (доверие 2) [7F7413BD] (AR v1)Трек 3 : извлечено точно (доверие 2) [96854B34] (AR v1)Трек 4 : извлечено точно (доверие 2) [A1896B71] (AR v1)Трек 5 : извлечено точно (доверие 2) [D246F4AC] (AR v1)Трек 6 : извлечено точно (доверие 2) [AB8308FC] (AR v1)Трек 7 : извлечено точно (доверие 2) [F680305F] (AR v1)Трек 8 : извлечено точно (доверие 2) [EFC423D9] (AR v1)Трек 9 : извлечено точно (доверие 2) [93355F38] (AR v1)
Все треки извлечены точно
Конец отчёта
==== Контрольная сумма отчёта 27B6A761FCFE5840A35A4A3323569B288FC1287B843FE7FEA4442AC851F6DB24 ====

Содержание индексной карты (.CUE)

REM GENRE "Chamber Music"REM DATE 1983REM DISCID 750F6609REM COMMENT "ExactAudioCopy v1.0b3"PERFORMER "The Borodin Trio, Mimi Zweig, Jerry Horner"TITLE "Shostakovich - Piano Quintet Op.57 & Trio No.2 Op.67"FILE "Shostakovich - Piano Quintet Op.57 & Trio No.2 Op.67.flac" WAVE TRACK 01 AUDIO TITLE "Piano Quintet in G minor, Op.57: I. Prelude (Lento)" PERFORMER "The Borodin Trio, Mimi Zweig, Jerry Horner" INDEX 00 00:00:00 INDEX 01 00:00:32 TRACK 02 AUDIO TITLE "Piano Quintet in G minor, Op.57: II. Fugue (Adagio)" PERFORMER "The Borodin Trio, Mimi Zweig, Jerry Horner" INDEX 00 04:48:32 INDEX 01 04:49:30 TRACK 03 AUDIO TITLE "Piano Quintet in G minor, Op.57: III. Scherzo (Allegretto)" PERFORMER "The Borodin Trio, Mimi Zweig, Jerry Horner" INDEX 00 17:04:20 INDEX 01 17:05:72 TRACK 04 AUDIO TITLE "Piano Quintet in G minor, Op.57: IV. Intermezzo (Lento)" PERFORMER "The Borodin Trio, Mimi Zweig, Jerry Horner" INDEX 00 20:54:45 INDEX 01 20:58:65 TRACK 05 AUDIO TITLE "Piano Quintet in G minor, Op.57: V. Finale (Allegretto)" PERFORMER "The Borodin Trio, Mimi Zweig, Jerry Horner" INDEX 01 28:20:35 TRACK 06 AUDIO TITLE "Piano Trio No.2 in E minor, Op.67: I. Andante - Moderato" PERFORMER "The Borodin Trio" INDEX 00 35:54:55 INDEX 01 36:04:42 TRACK 07 AUDIO TITLE "Piano Trio No.2 in E minor, Op.67: II. Allegro non troppo" PERFORMER "The Borodin Trio" INDEX 00 44:20:45 INDEX 01 44:24:45 TRACK 08 AUDIO TITLE "Piano Trio No.2 in E minor, Op.67: III. Largo -" PERFORMER "The Borodin Trio" INDEX 00 48:00:22 INDEX 01 48:05:37 TRACK 09 AUDIO TITLE "Piano Trio No.2 in E minor, Op.67: IV. Allegretto" PERFORMER "The Borodin Trio" INDEX 01 54:12:10



Показать сообщения:    

Текущее время: 10-Дек 21:29

Часовой пояс: UTC + 3


Вы не можете начинать темы
Вы не можете отвечать на сообщения
Вы не можете редактировать свои сообщения
Вы не можете удалять свои сообщения
Вы не можете голосовать в опросах
Вы не можете прикреплять файлы к сообщениям
Вы не можете скачивать файлы