(Classical) Vivaldi - Trio Sonatas Op.I / VII-XII (L’Arte dell’Arco, Christopher Hogwood) - 2014 / 1997, FLAC (image+.cue) lossless


 

[Цитировать]

Vivaldi - Trio Sonatas Op.I / VII-XII (L’Arte dell’Arco)
Жанр: Classical
Год издания диска: 2014 / 1997
Издатель (лейбл): DHM
Номер по каталогу: 88843 02161
Аудиокодек: FLAC
Тип рипа: image+.cue
Битрейт аудио: lossless
Продолжительность: 54'23
Источник: собственный рип
Наличие сканов в содержимом раздачи: да
Исполнители:
L’Arte dell’Arco
Federico Guglielmo, solo violin I
Giovanni Guglielmo, solo violin II
Pietro Bosna, violoncello
Federico Marincola, theorbo
Christopher Hogwood, harpsichord & chamber organ
Треклист:
01. Sonata VII
02. Sonata VIII
03. Sonata IX
04. Sonata X
05. Sonata XI
06. Sonata XII "Follia"

LOG EAC

Exact Audio Copy V1.0 beta 3 from 29. August 2011
EAC extraction logfile from 9. June 2014, 15:59
Christopher Hogwood - L'Arte dell'Arco / Vivaldi - Suonate da camera a tre Op.I Nos. VII-XII
Used drive : PIONEER DVD-RW DVR-218L Adapter: 0 ID: 1
Read mode : SecureUtilize accurate stream : YesDefeat audio cache : YesMake use of C2 pointers : No
Read offset correction : 6Overread into Lead-In and Lead-Out : NoFill up missing offset samples with silence : YesDelete leading and trailing silent blocks : NoNull samples used in CRC calculations : YesUsed interface : Native Win32 interface for Win NT & 2000
Used output format : User Defined EncoderSelected bitrate : 128 kBit/sQuality : HighAdd ID3 tag : NoCommand line compressor : C:\Program Files\Exact Audio Copy\Flac\flac.exeAdditional command line options : -V -8 -T "Date=%year%" -T "Genre=%genre%" %source%
TOC of the extracted CD
Track | Start | Length | Start sector | End sector --------------------------------------------------------- 1 | 0:00.00 | 10:59.62 | 0 | 49486 2 | 10:59.62 | 9:57.29 | 49487 | 94290 3 | 20:57.16 | 7:22.31 | 94291 | 127471 4 | 28:19.47 | 6:38.64 | 127472 | 157385 5 | 34:58.36 | 9:33.44 | 157386 | 200404 6 | 44:32.05 | 9:49.29 | 200405 | 244608
Range status and errors
Selected range
Filename C:\Program Files\Exact Audio Copy\Flac\Vivaldi - Suonate da camera a tre Op.I Nos. VII-XII.wav
Peak level 97.0 % Extraction speed 1.8 X Range quality 100.0 % Test CRC 734D6F61 Copy CRC 734D6F61 Copy OK
No errors occurred
End of status report
==== Log checksum A8842560434EC9FDAA889993F9DDDB109B7EB4B5F4548BB20B80C16EB640BA4C ====



Показать сообщения:    

Текущее время: 06-Дек 20:53

Часовой пояс: UTC + 3


Вы не можете начинать темы
Вы не можете отвечать на сообщения
Вы не можете редактировать свои сообщения
Вы не можете удалять свои сообщения
Вы не можете голосовать в опросах
Вы не можете прикреплять файлы к сообщениям
Вы не можете скачивать файлы