(Classical) Vivaldi - Sinfonie 'Avanti l’opera' e Concerti (Christopher Hogwood, L’Arte dell’Arco) - 2014 / 1999, FLAC (image+.cue) lossless


 

[Цитировать]

Vivaldi - Sinfonie 'Avanti l’opera' e Concerti (Christopher Hogwood, L’Arte dell’Arco)
Жанр: Classical
Год издания диска: 2014 / 1999
Издатель (лейбл): DHM
Номер по каталогу: 88843 02161
Аудиокодек: FLAC
Тип рипа: image+.cue
Битрейт аудио: lossless
Продолжительность: 68’27
Источник: собственный рип
Наличие сканов в содержимом раздачи: да
Исполнители:
L’Arte dell’Arco
Federico Guglielmo, solo violin I
Giovanni Guglielmo, solo violin II
Christopher Hogwood, conductor
Треклист:
01-03. Il Bajazet: Sinfonia in F major RV 703
04-07. L'Olimpiade: Sinfonia in C major RV 725
08-10. La verita in cimento: Sinfonia in G major RV 739
11-13. Violin Concerto in C minor 'Amato bene' RV 761
14-15. Ottone in villa: Sinfonia in C major RV 729
16-18. Concerto in F major RV 571
19-21. La Dorilla: Sinfonia in C major RV 709
22. Il Farnace: Sinfonia in C major RV 711"
23-25. Sinfonia in G major RV 149
26-28. Concerto in D minor RV 128
29-31. Il Giustino: Sinfonia in C major RV 717

LOG EAC

Exact Audio Copy V1.0 beta 3 from 29. August 2011
EAC extraction logfile from 25. May 2014, 14:01
Christopher Hogwood - L’Arte dell’Arco / Vivaldi - Sinfonie 'Avanti l’opera' e Concerti
Used drive : PIONEER DVD-RW DVR-218L Adapter: 0 ID: 1
Read mode : SecureUtilize accurate stream : YesDefeat audio cache : YesMake use of C2 pointers : No
Read offset correction : 6Overread into Lead-In and Lead-Out : NoFill up missing offset samples with silence : YesDelete leading and trailing silent blocks : NoNull samples used in CRC calculations : YesUsed interface : Native Win32 interface for Win NT & 2000
Used output format : User Defined EncoderSelected bitrate : 128 kBit/sQuality : HighAdd ID3 tag : NoCommand line compressor : C:\Program Files\Exact Audio Copy\Flac\flac.exeAdditional command line options : -V -8 -T "Date=%year%" -T "Genre=%genre%" %source%
TOC of the extracted CD
Track | Start | Length | Start sector | End sector---------------------------------------------------------1 | 0:00.00 | 2:40.07 | 0 | 120062 | 2:40.07 | 2:35.29 | 12007 | 236603 | 5:15.36 | 1:08.57 | 23661 | 288174 | 6:24.18 | 2:11.38 | 28818 | 386805 | 8:35.56 | 2:24.74 | 38681 | 495546 | 11:00.55 | 1:17.19 | 49555 | 553487 | 12:17.74 | 1:16.72 | 55349 | 611208 | 13:34.71 | 1:55.67 | 61121 | 698129 | 15:30.63 | 2:28.62 | 69813 | 8097410 | 17:59.50 | 1:15.42 | 80975 | 8664111 | 19:15.17 | 3:51.27 | 86642 | 10399312 | 23:06.44 | 2:22.55 | 103994 | 11469813 | 25:29.24 | 3:30.03 | 114699 | 13045114 | 28:59.27 | 2:52.29 | 130452 | 14338015 | 31:51.56 | 2:08.25 | 143381 | 15300516 | 34:00.06 | 4:01.17 | 153006 | 17109717 | 38:01.23 | 2:04.08 | 171098 | 18040518 | 40:05.31 | 3:34.71 | 180406 | 19652619 | 43:40.27 | 1:59.04 | 196527 | 20545520 | 45:39.31 | 2:05.62 | 205456 | 21489221 | 47:45.18 | 0:42.16 | 214893 | 21805822 | 48:27.34 | 1:50.58 | 218059 | 22636623 | 50:18.17 | 1:49.64 | 226367 | 23460524 | 52:08.06 | 1:47.73 | 234606 | 24270325 | 53:56.04 | 2:53.29 | 242704 | 25570726 | 56:49.33 | 2:38.19 | 255708 | 26757627 | 59:27.52 | 0:49.53 | 267577 | 27130428 | 60:17.30 | 1:34.33 | 271305 | 27838729 | 61:51.63 | 2:30.14 | 278388 | 28965130 | 64:22.02 | 3:18.47 | 289652 | 30454831 | 67:40.49 | 0:46.37 | 304549 | 308035
Range status and errors
Selected range
Filename C:\Program Files\Exact Audio Copy\Flac\Vivaldi - Sinfonie 'Avanti l’opera' e Concerti.wav
Peak level 93.4 %Extraction speed 1.9 XRange quality 99.9 %Test CRC B048682ACopy CRC B048682ACopy OK
No errors occurred
End of status report
==== Log checksum E28A08390DD608896B70398217FF46F976755806532DE1E2E2243537A60ABA53 ====



Показать сообщения:    

Текущее время: 06-Дек 17:06

Часовой пояс: UTC + 3


Вы не можете начинать темы
Вы не можете отвечать на сообщения
Вы не можете редактировать свои сообщения
Вы не можете удалять свои сообщения
Вы не можете голосовать в опросах
Вы не можете прикреплять файлы к сообщениям
Вы не можете скачивать файлы