(Chamber music, Vocal) Akantus - "Amando e Desiando" Spanish and Italian music from the 16th century (Alonso Mudarra, Diego Ortiz, Francesco da Milano, Luis de Narvaez, Marchetto Cara) - 1993, FLAC (image+.cue) lossless


 

[Цитировать]

Akantus - "Amando e Desiando" Spanish and Italian music from the 16th century
Жанр: Chamber music, Vocal
Страна-производитель диска: EU
Год издания диска: 1993
Издатель (лейбл): Alice musik production
Номер по каталогу: ALCD 010
Дата записи: 1993
Аудиокодек: FLAC
Тип рипа: image+.cue
Битрейт аудио: lossless
Продолжительность: 01:08:03
Источник: DC++
Наличие сканов в содержимом раздачи: да
Треклист:
Alonso Mudarra
1. Fantasia
2. Claros y frescos ríos
3. Fantasia
4. Gentil cavallero
5. Bartolomeo Tromboncino - Poi che volse la mia stella
6. Joan Ambrosio Dalza - Testar de corde
7. Marchetto Cara - Chi me dara più pace
Diego Ortiz
8. Recercada 4
9. Recercada 8
10. Marchetto Cara - Liber fui un tempo
11. Joan Ambrosio Dalza - Testar de corde
12. Bartolomeo Tromboncino - Non val aqua al mio gran foco
Francesco da Milano
13. Recercar no. 51
14. Fantasia no. 30
15. Fantasia no. 40
16. Mateo Flecha d.ä. - Falalalán
17. Anonymous - Ay de mi, qu'en tierra agena
18. Juan del Enzina - No tienen vado mis males
19. Bartomeu Cárceres - Soleta so yo açi
Diego Ortiz
20. Recercada 3
21. Recercada 7
22. Recercada 4
Luis de Narváez
23. Paseábase el rey moro
24. Guárdame las vacas diferencias 1-4
25. La bella mal maridada
26. Guárdame las vacas diferencias 5-7
27. Michele Pesenti - S'io son stato a ritornare
28. Benedetto Gareth - Amando e desiando
29. Francesco Spinacino - Ricercar
Исполнители:
"Akantus" is:
Lena Susanna Norin, voice
Peter Söderberg, vihuela, lute
Leif Henrikson, viola da gamba

Лог создания рипа

Exact Audio Copy V1.0 beta 3 from 29. August 2011
Отчёт EAC об извлечении, выполненном 11. мая 2014, 12:37
Akantus / Amando e Desiando
Дисковод: Optiarc DVD RW AD-7283S Adapter: 0 ID: 1
Режим чтения : ДостоверностьИспользование точного потока : ДаОтключение кэша аудио : ДаИспользование указателей C2 : Нет
Коррекция смещения при чтении : 48Способность читать области Lead-in и Lead-out : НетЗаполнение пропущенных сэмплов тишиной : ДаУдаление блоков с тишиной в начале и конце : НетПри вычислениях CRC использовались нулевые сэмплы : ДаИнтерфейс : Встроенный Win32-интерфейс для Win NT/2000
Выходной формат : Внутренние WAV-операцииФормат сэмплов : 44.100 Гц; 16 бит; стерео
TOC извлечённого CD
Трек | Старт | Длительность | Начальный сектор | Конечный сектор --------------------------------------------------------------------- 1 | 0:00.00 | 1:14.31 | 0 | 5580 2 | 1:14.31 | 3:43.57 | 5581 | 22362 3 | 4:58.13 | 1:20.64 | 22363 | 28426 4 | 6:19.02 | 3:51.06 | 28427 | 45757 5 | 10:10.08 | 3:39.69 | 45758 | 62251 6 | 13:50.02 | 1:16.63 | 62252 | 68014 7 | 15:06.65 | 3:52.51 | 68015 | 85465 8 | 18:59.41 | 1:20.15 | 85466 | 91480 9 | 20:19.56 | 1:53.12 | 91481 | 99967 10 | 22:12.68 | 2:06.49 | 99968 | 109466 11 | 24:19.42 | 1:36.16 | 109467 | 116682 12 | 25:55.58 | 5:59.67 | 116683 | 143674 13 | 31:55.50 | 2:44.54 | 143675 | 156028 14 | 34:40.29 | 2:20.31 | 156029 | 166559 15 | 37:00.60 | 0:55.45 | 166560 | 170729 16 | 37:56.30 | 2:01.24 | 170730 | 179828 17 | 39:57.54 | 2:38.14 | 179829 | 191692 18 | 42:35.68 | 1:38.09 | 191693 | 199051 19 | 44:14.02 | 2:17.18 | 199052 | 209344 20 | 46:31.20 | 1:42.42 | 209345 | 217036 21 | 48:13.62 | 1:40.49 | 217037 | 224585 22 | 49:54.36 | 1:33.39 | 224586 | 231599 23 | 51:28.00 | 2:56.19 | 231600 | 244818 24 | 54:24.19 | 1:34.30 | 244819 | 251898 25 | 55:58.49 | 2:08.72 | 251899 | 261570 26 | 58:07.46 | 1:39.36 | 261571 | 269031 27 | 59:47.07 | 2:31.33 | 269032 | 280389 28 | 62:18.40 | 3:24.19 | 280390 | 295708 29 | 65:42.59 | 2:20.27 | 295709 | 306235
Характеристики диапазона извлечения и сообщения об ошибках
Выбранный диапазон
Имя файла D:\WORK\Akantus - Amando e Desiando, Spanish & Itlaian Music of the 16th century\Akantus - Amando e Desiando.wav
Пиковый уровень 99.4 % Скорость извлечения 4.5 X Качество диапазона 100.0 % CRC копии F2D7A8C3 Копирование... OK
Ошибок не произошло
AccurateRip: сводка
Трек 1 отсутствует в базе данныхТрек 2 отсутствует в базе данныхТрек 3 отсутствует в базе данныхТрек 4 отсутствует в базе данныхТрек 5 отсутствует в базе данныхТрек 6 отсутствует в базе данныхТрек 7 отсутствует в базе данныхТрек 8 отсутствует в базе данныхТрек 9 отсутствует в базе данныхТрек 10 отсутствует в базе данныхТрек 11 отсутствует в базе данныхТрек 12 отсутствует в базе данныхТрек 13 отсутствует в базе данныхТрек 14 отсутствует в базе данныхТрек 15 отсутствует в базе данныхТрек 16 отсутствует в базе данныхТрек 17 отсутствует в базе данныхТрек 18 отсутствует в базе данныхТрек 19 отсутствует в базе данныхТрек 20 отсутствует в базе данныхТрек 21 отсутствует в базе данныхТрек 22 отсутствует в базе данныхТрек 23 отсутствует в базе данныхТрек 24 отсутствует в базе данныхТрек 25 отсутствует в базе данныхТрек 26 отсутствует в базе данныхТрек 27 отсутствует в базе данныхТрек 28 отсутствует в базе данныхТрек 29 отсутствует в базе данных
Ни одного трека нет в базе AccurateRip
Конец отчёта

Содержание индексной карты (.CUE)

REM GENRE "Chamber Music"REM DATE 1993REM DISCID B50FF31DREM COMMENT "ExactAudioCopy v1.0b3"PERFORMER "Akantus"TITLE "Amando e Desiando"FILE "Akantus - Amando e Desiando.flac" WAVE TRACK 01 AUDIO TITLE "Alonso Mudarra, Fantasia" PERFORMER "Akantus" FLAGS DCP INDEX 01 00:00:00 TRACK 02 AUDIO TITLE "Alonso Mudarra, Claros y frescos rios" PERFORMER "Akantus" FLAGS DCP INDEX 01 01:14:31 TRACK 03 AUDIO TITLE "Alonso Mudarra, Fantasia" PERFORMER "Akantus" FLAGS DCP INDEX 01 04:58:13 TRACK 04 AUDIO TITLE "Alonso Mudarra, Gentil cavallero" PERFORMER "Akantus" FLAGS DCP INDEX 01 06:19:02 TRACK 05 AUDIO TITLE "Bartolomeo Tromboncino, Poi che volse la mia stella" PERFORMER "Akantus" FLAGS DCP INDEX 01 10:10:08 TRACK 06 AUDIO TITLE "Joan Ambrosio Dalza, Testar de corde" PERFORMER "Akantus" FLAGS DCP INDEX 01 13:50:02 TRACK 07 AUDIO TITLE "Marchetto Cara, Chi me dara piu pace" PERFORMER "Akantus" FLAGS DCP INDEX 01 15:06:65 TRACK 08 AUDIO TITLE "Diego Ortiz, Recercada 4" PERFORMER "Akantus" FLAGS DCP INDEX 01 18:59:41 TRACK 09 AUDIO TITLE "Diego Ortiz, Recercada 8" PERFORMER "Akantus" FLAGS DCP INDEX 01 20:19:56 TRACK 10 AUDIO TITLE "Marchetto Cara, Liber fui un tempo" PERFORMER "Akantus" FLAGS DCP INDEX 01 22:12:68 TRACK 11 AUDIO TITLE "Joan Ambrosio Dalza, Testar de corde" PERFORMER "Akantus" FLAGS DCP INDEX 01 24:19:42 TRACK 12 AUDIO TITLE "Bartolomeo Tromboncino, Non val aqua al mio gran foco" PERFORMER "Akantus" FLAGS DCP INDEX 01 25:55:58 TRACK 13 AUDIO TITLE "Francesco da Milano, Recercar no. 51" PERFORMER "Akantus" FLAGS DCP INDEX 01 31:55:50 TRACK 14 AUDIO TITLE "Francesco da Milano, Fantasia no. 30" PERFORMER "Akantus" FLAGS DCP INDEX 01 34:40:29 TRACK 15 AUDIO TITLE "Francesco da Milano, Fantasia no. 40" PERFORMER "Akantus" FLAGS DCP INDEX 01 37:00:60 TRACK 16 AUDIO TITLE "Mateo Flecha d.a., Falalalan" PERFORMER "Akantus" FLAGS DCP INDEX 01 37:56:30 TRACK 17 AUDIO TITLE "Anonymous, Ay de mi, qu'en tierra agena" PERFORMER "Akantus" FLAGS DCP INDEX 01 39:57:54 TRACK 18 AUDIO TITLE "Juan del Enzina, No tienen vado mis males" PERFORMER "Akantus" FLAGS DCP INDEX 01 42:35:68 TRACK 19 AUDIO TITLE "Bartomeu Carceres, Soleta so yo aci" PERFORMER "Akantus" FLAGS DCP INDEX 01 44:14:02 TRACK 20 AUDIO TITLE "Diego Ortiz, Recercada 3" PERFORMER "Akantus" FLAGS DCP INDEX 01 46:31:20 TRACK 21 AUDIO TITLE "Diego Ortiz, Recercada 7" PERFORMER "Akantus" FLAGS DCP INDEX 01 48:13:62 TRACK 22 AUDIO TITLE "Diego Ortiz, Recercada 4" PERFORMER "Akantus" FLAGS DCP INDEX 01 49:54:36 TRACK 23 AUDIO TITLE "Luis de Narvaez, Paseabase el rey moro" PERFORMER "Akantus" FLAGS DCP INDEX 01 51:28:00 TRACK 24 AUDIO TITLE "Luis de Narvaez, Guardame las vacas diferencias 1-4" PERFORMER "Akantus" FLAGS DCP INDEX 01 54:24:19 TRACK 25 AUDIO TITLE "Luis de Narvaez, La bella mal maridada" PERFORMER "Akantus" FLAGS DCP INDEX 01 55:58:49 TRACK 26 AUDIO TITLE "Luis de Narvaez, Guardame las vacas diferencias 5-7" PERFORMER "Akantus" FLAGS DCP INDEX 01 58:07:46 TRACK 27 AUDIO TITLE "Michele Pesenti, S'io son stato a ritornare" PERFORMER "Akantus" FLAGS DCP INDEX 01 59:47:07 TRACK 28 AUDIO TITLE "Benedetto Gareth, Amando e desiando" PERFORMER "Akantus" FLAGS DCP INDEX 01 62:18:40 TRACK 29 AUDIO TITLE "Francesco Spinacino, Ricercar" PERFORMER "Akantus" FLAGS DCP INDEX 01 65:42:59

Лог проверки качества

AUDIOCHECKER v2.0 beta (build 457) - by Dester - opdester@freemail.hu~~~~~~~~~~~~~~~~~~~~~~~~~~~~~~~~~~-=== DO NOT EDIT THIS FILE! ===-
Path: ...\Akantus - Amando e Desiando, Spanish & Itlaian Music of the 16th century
1 -=- Akantus - Amando e Desiando.flac -=- CDDA (100%)
245910564

Скриншот спектра частот

Доп. информация: Recordered at Boo Church, Stokholm
August 1993 by Niklas Billstrom and Johan Petri



Показать сообщения:    

Текущее время: 06-Дек 22:50

Часовой пояс: UTC + 3


Вы не можете начинать темы
Вы не можете отвечать на сообщения
Вы не можете редактировать свои сообщения
Вы не можете удалять свои сообщения
Вы не можете голосовать в опросах
Вы не можете прикреплять файлы к сообщениям
Вы не можете скачивать файлы