(Chamber music) Ludwig van Beethoven - Complete String Quartets - Quatuor Vegh - 1987, FLAC (image+.cue) lossless


 

[Цитировать]

Ludwig van Beethoven - Complete String Quartets - Quatuor Vegh (1987) the celebrated Auvidis/Naïve recordings
Жанр: Chamber music
Страна-производитель диска: Франция
Год издания диска: 1987
Издатель (лейбл): Auvidis Naïve
Номер по каталогу: V4871
Дата записи: 1972-1974
Аудиокодек: FLAC
Тип рипа: image+.cue
Битрейт аудио: lossless
Продолжительность: 8h 46m 34s
Источник: собственный рип
сайт-источник/ник/другое: EAC
Наличие сканов в содержимом раздачи: да
Треклист:

скрытый текст

CD 1
01 - 1er Quatuor Op 18/I - I. Allegro con brio
02 - II. Adagio affettuoso ed appassionato
03 - III. Scherzo. Allegro molto
04 - IV. Allegro
05 - 5eme Quatuor Op 18/V - I. Allegro
06 - II. Menuetto
07 - III. Andante cantabile
08 - IV. Allegro
CD 2
01 - 2eme Quatuor Op 18/II - I. Allegro
02 - II. Adagio cantabile
03 - III. Scherzo. Allegro
04 - IV. Allegro molto, quasi Presto
05 - 3eme Quatuor Op 18/III - I. Allegro
06 - II. Andante con moto
07 - III. Allegro
08 - IV. Presto
09 - 4eme Quatuor Op 18/IV - I. Allegro non tanto
10 - II. Scherzo. Andante scherzoso quasi Allegretto
11 - III. Menuetto. Allegretto
12 - IV. Allegro
CD 3
01 - 6eme Quatuor Op 18/VI - I. Allegro con brio
02 - II. Adagio, ma non troppo
03 - III. Scherzo. Allegro
04 - IV. La Malinconia. Adagio - Allegretto quasi Allegro
05 - 7eme Quatuor Op 59/I - I. Allegro
06 - II. Allegretto vivace e sempre scherzando
07 - III. Adagio molto e mesto - attacca: IV. Finale: Presto
CD 4
01 - 8eme Quatuor Op 59/II - I. Allegro
02 - II. Molto adagio
03 - III. Allegretto
04 - IV. Finale. Presto
05 - 9eme Quatuor Op 59/III - I. Introduzione. Andante con moto - Allegro vivace
06 - II. Andante con moto quasi Allegretto
07 - III. Menuetto. Grazioso - attacca: IV. Allegro molto
CD 5
01 - 10eme Quatuor Op 74 - I. Poco Adagio - Allegro
02 - II. Adagio ma non troppo
03 - III. Presto - attacca: IV. Allegretto con variazioni
04 - 12eme Quatuor Op 127 - I. Maestoso - Allegro
05 - II. Adagio, ma non troppo e molto cantabile
06 - III. Scherzando vivace
07 - IV. Finale
CD 6
01 - 11eme Quatuor Op 95 - I. Allegro con brio
02 - I. Allegretto ma non troppo - attacca: III. Allegro assai vivace ma serioso
03 - IV. Larghetto - Allegretto agitato
04 - 15eme Quatuor Op 132 - I. Assai sostenuto - Allegro
05 - II. Allegro ma non tanto
06 - III. Canzona di ringraziamento. Molto adagio
07 - IV. Alla marcia, assai vivace - attacca: V. Allegro appassionato
CD 7
01 - 13eme Quatuor Op 130/133 - I. Adagio ma non troppo - Allegro
02 - II. Presto
03 - III. Andante con moto ma non troppo
04 - IV. Alla danza tedesca. Allegro assai
05 - V. Cavatina. Adagio molto espressivo
06 - VIa. Grande Fugue (premiere finale) opus 133
07 - VIb. Allegro (deuxieme finale)
CD 8
01 - 14eme Quatuor Op 131 - I. Adagio ma non troppo e molto espressivo - attacca: II. Allegro molto vivace - attacca: III. Allegro moderato - attacca: IV. Andante ma non troppo e molto cantabile - attacca: V. Presto - attacca: VI. Adagio quasi un poco andante - attacca: VII. Allegro
02 - 16eme Quatuor Op 135 - I. Allegretto
03 - II. Vivace
04 - III. Lento assai, cantante e tranquillo
05 - IV. Grave ma non troppo tratto - Allegro
Исполнители:
Quatuor Vegh:
Sandor Végh, violon I
Sandor Zöldy, violon II
Georges Janzes, alto
Paul Szabo, violoncelle

Лог создания рипа

CD 1

скрытый текст

Exact Audio Copy V1.0 beta 3 from 29. August 2011
EAC extraction logfile from 19. April 2014, 15:58
Ludwig van Beethoven / Beethoven - Complete String Quartets
Used drive : HL-DT-STDVD+-RW GT80N Adapter: 0 ID: 1
Read mode : Secure
Utilize accurate stream : Yes
Defeat audio cache : No
Make use of C2 pointers : No
Read offset correction : 102
Overread into Lead-In and Lead-Out : No
Fill up missing offset samples with silence : Yes
Delete leading and trailing silent blocks : No
Null samples used in CRC calculations : Yes
Used interface : Native Win32 interface for Win NT & 2000
Used output format : User Defined Encoder
Selected bitrate : 768 kBit/s
Quality : High
Add ID3 tag : No
Command line compressor : E:\Exact Audio Copy\FLAC\FLAC.EXE
Additional command line options : -6 -V -T "ARTIST=%artist%" -T "TITLE=%title%" -T "ALBUM=%albumtitle%" -T "DATE=%year%" -T "TRACKNUMBER=%tracknr%" -T "GENRE=%genre%" -T "COMMENT=%comment%" -T "BAND=%albuminterpret%" -T "ALBUMARTIST=%albuminterpret%" -T "COMPOSER=%composer%" %haslyrics%--tag-from-file=LYRICS="%lyricsfile%"%haslyrics% -T "DISCNUMBER=%cdnumber%" -T "TOTALDISCS=%totalcds%" -T "TOTALTRACKS=%numtracks%" %hascover%--picture="%coverfile%"%hascover% %source% -o %dest%
TOC of the extracted CD
Track | Start | Length | Start sector | End sector
---------------------------------------------------------
1 | 0:00.32 | 9:32.30 | 32 | 42961
2 | 9:32.62 | 9:38.55 | 42962 | 86366
3 | 19:11.42 | 3:34.63 | 86367 | 102479
4 | 22:46.30 | 6:06.67 | 102480 | 129996
5 | 28:53.22 | 7:20.48 | 129997 | 163044
6 | 36:13.70 | 5:57.52 | 163045 | 189871
7 | 42:11.47 | 10:16.38 | 189872 | 236109
8 | 52:28.10 | 4:53.50 | 236110 | 258134
Range status and errors
Selected range
Filename E:\Beethoven - Quatuor Vegh\Ludwig van Beethoven - Beethoven - Complete String Quartets CD1.wav
Peak level 100.0 %
Extraction speed 6.6 X
Range quality 100.0 %
Copy CRC 8715C1B0
Copy OK
No errors occurred
AccurateRip summary
Track 1 accurately ripped (confidence 10) [459605E9] (AR v2)
Track 2 accurately ripped (confidence 10) [DA279D32] (AR v2)
Track 3 accurately ripped (confidence 10) [F1494AD3] (AR v2)
Track 4 accurately ripped (confidence 10) [F9EF3135] (AR v2)
Track 5 accurately ripped (confidence 10) [0A491D58] (AR v2)
Track 6 accurately ripped (confidence 10) [DF7D6A9C] (AR v2)
Track 7 accurately ripped (confidence 10) [038A7BE1] (AR v2)
Track 8 accurately ripped (confidence 10) [4EE67DE3] (AR v2)
All tracks accurately ripped
End of status report
CD 2

скрытый текст

Exact Audio Copy V1.0 beta 3 from 29. August 2011
EAC extraction logfile from 19. April 2014, 16:28
Ludwig van Beethoven / Beethoven - Complete String Quartets
Used drive : HL-DT-STDVD+-RW GT80N Adapter: 0 ID: 1
Read mode : Secure
Utilize accurate stream : Yes
Defeat audio cache : No
Make use of C2 pointers : No
Read offset correction : 102
Overread into Lead-In and Lead-Out : No
Fill up missing offset samples with silence : Yes
Delete leading and trailing silent blocks : No
Null samples used in CRC calculations : Yes
Used interface : Native Win32 interface for Win NT & 2000
Used output format : User Defined Encoder
Selected bitrate : 768 kBit/s
Quality : High
Add ID3 tag : No
Command line compressor : E:\Exact Audio Copy\FLAC\FLAC.EXE
Additional command line options : -6 -V -T "ARTIST=%artist%" -T "TITLE=%title%" -T "ALBUM=%albumtitle%" -T "DATE=%year%" -T "TRACKNUMBER=%tracknr%" -T "GENRE=%genre%" -T "COMMENT=%comment%" -T "BAND=%albuminterpret%" -T "ALBUMARTIST=%albuminterpret%" -T "COMPOSER=%composer%" %haslyrics%--tag-from-file=LYRICS="%lyricsfile%"%haslyrics% -T "DISCNUMBER=%cdnumber%" -T "TOTALDISCS=%totalcds%" -T "TOTALTRACKS=%numtracks%" %hascover%--picture="%coverfile%"%hascover% %source% -o %dest%
TOC of the extracted CD
Track | Start | Length | Start sector | End sector
---------------------------------------------------------
1 | 0:00.32 | 7:29.68 | 32 | 33774
2 | 7:30.25 | 6:23.32 | 33775 | 62531
3 | 13:53.57 | 4:39.45 | 62532 | 83501
4 | 18:33.27 | 5:27.18 | 83502 | 108044
5 | 24:00.45 | 8:07.22 | 108045 | 144591
6 | 32:07.67 | 7:33.23 | 144592 | 178589
7 | 39:41.15 | 3:08.32 | 178590 | 192721
8 | 42:49.47 | 5:03.13 | 192722 | 215459
9 | 47:52.60 | 9:11.40 | 215460 | 256824
10 | 57:04.25 | 5:24.27 | 256825 | 281151
11 | 62:28.52 | 4:28.63 | 281152 | 301314
12 | 66:57.40 | 4:24.72 | 301315 | 321186
Range status and errors
Selected range
Filename E:\Beethoven - Quatuor Vegh\Ludwig van Beethoven - Beethoven - Complete String Quartets CD2.wav
Peak level 97.8 %
Extraction speed 7.3 X
Range quality 99.9 %
Copy CRC 6F990BC5
Copy OK
No errors occurred
AccurateRip summary
Track 1 accurately ripped (confidence 8) [F7C2C553] (AR v2)
Track 2 accurately ripped (confidence 8) [6B88D1A3] (AR v2)
Track 3 accurately ripped (confidence 8) [800A1E5F] (AR v2)
Track 4 accurately ripped (confidence 8) [675F146F] (AR v2)
Track 5 accurately ripped (confidence 7) [51C1F46A] (AR v2)
Track 6 accurately ripped (confidence 8) [F3DDEB29] (AR v2)
Track 7 accurately ripped (confidence 8) [7D6D504C] (AR v2)
Track 8 accurately ripped (confidence 8) [34DA41DA] (AR v2)
Track 9 accurately ripped (confidence 8) [8BC14AB1] (AR v2)
Track 10 accurately ripped (confidence 8) [A8A57DE1] (AR v2)
Track 11 accurately ripped (confidence 8) [B281DD05] (AR v2)
Track 12 accurately ripped (confidence 7) [640B6A66] (AR v2)
All tracks accurately ripped
End of status report
CD 3

скрытый текст

Exact Audio Copy V1.0 beta 3 from 29. August 2011
EAC extraction logfile from 19. April 2014, 17:01
Ludwig van Beethoven / Beethoven - Complete String Quartets
Used drive : HL-DT-STDVD+-RW GT80N Adapter: 0 ID: 1
Read mode : Secure
Utilize accurate stream : Yes
Defeat audio cache : No
Make use of C2 pointers : No
Read offset correction : 102
Overread into Lead-In and Lead-Out : No
Fill up missing offset samples with silence : Yes
Delete leading and trailing silent blocks : No
Null samples used in CRC calculations : Yes
Used interface : Native Win32 interface for Win NT & 2000
Used output format : User Defined Encoder
Selected bitrate : 768 kBit/s
Quality : High
Add ID3 tag : No
Command line compressor : E:\Exact Audio Copy\FLAC\FLAC.EXE
Additional command line options : -6 -V -T "ARTIST=%artist%" -T "TITLE=%title%" -T "ALBUM=%albumtitle%" -T "DATE=%year%" -T "TRACKNUMBER=%tracknr%" -T "GENRE=%genre%" -T "COMMENT=%comment%" -T "BAND=%albuminterpret%" -T "ALBUMARTIST=%albuminterpret%" -T "COMPOSER=%composer%" %haslyrics%--tag-from-file=LYRICS="%lyricsfile%"%haslyrics% -T "DISCNUMBER=%cdnumber%" -T "TOTALDISCS=%totalcds%" -T "TOTALTRACKS=%numtracks%" %hascover%--picture="%coverfile%"%hascover% %source% -o %dest%
TOC of the extracted CD
Track | Start | Length | Start sector | End sector
---------------------------------------------------------
1 | 0:00.32 | 6:36.10 | 32 | 29741
2 | 6:36.42 | 6:34.70 | 29742 | 59361
3 | 13:11.37 | 3:25.70 | 59362 | 74806
4 | 16:37.32 | 8:32.53 | 74807 | 113259
5 | 25:10.10 | 11:05.35 | 113260 | 163169
6 | 36:15.45 | 9:50.00 | 163170 | 207419
7 | 46:05.45 | 19:55.00 | 207420 | 297044
Range status and errors
Selected range
Filename E:\Beethoven - Quatuor Vegh\Ludwig van Beethoven - Beethoven - Complete String Quartets CD3.wav
Peak level 93.4 %
Extraction speed 7.0 X
Range quality 100.0 %
Copy CRC C2F9FB33
Copy OK
No errors occurred
AccurateRip summary
Track 1 accurately ripped (confidence 10) [C159F07E] (AR v2)
Track 2 accurately ripped (confidence 10) [8E6C29D2] (AR v2)
Track 3 accurately ripped (confidence 10) [99566C44] (AR v2)
Track 4 accurately ripped (confidence 10) [F6C0E1A7] (AR v2)
Track 5 accurately ripped (confidence 10) [3A6E7327] (AR v2)
Track 6 accurately ripped (confidence 10) [15D893E3] (AR v2)
Track 7 accurately ripped (confidence 10) [95D8F284] (AR v2)
All tracks accurately ripped
End of status report
CD 4

скрытый текст

Exact Audio Copy V1.0 beta 3 from 29. August 2011
EAC extraction logfile from 19. April 2014, 17:30
Ludwig van Beethoven / Beethoven - Complete String Quartets
Used drive : HL-DT-STDVD+-RW GT80N Adapter: 0 ID: 1
Read mode : Secure
Utilize accurate stream : Yes
Defeat audio cache : No
Make use of C2 pointers : No
Read offset correction : 102
Overread into Lead-In and Lead-Out : No
Fill up missing offset samples with silence : Yes
Delete leading and trailing silent blocks : No
Null samples used in CRC calculations : Yes
Used interface : Native Win32 interface for Win NT & 2000
Used output format : User Defined Encoder
Selected bitrate : 768 kBit/s
Quality : High
Add ID3 tag : No
Command line compressor : E:\Exact Audio Copy\FLAC\FLAC.EXE
Additional command line options : -6 -V -T "ARTIST=%artist%" -T "TITLE=%title%" -T "ALBUM=%albumtitle%" -T "DATE=%year%" -T "TRACKNUMBER=%tracknr%" -T "GENRE=%genre%" -T "COMMENT=%comment%" -T "BAND=%albuminterpret%" -T "ALBUMARTIST=%albuminterpret%" -T "COMPOSER=%composer%" %haslyrics%--tag-from-file=LYRICS="%lyricsfile%"%haslyrics% -T "DISCNUMBER=%cdnumber%" -T "TOTALDISCS=%totalcds%" -T "TOTALTRACKS=%numtracks%" %hascover%--picture="%coverfile%"%hascover% %source% -o %dest%
TOC of the extracted CD
Track | Start | Length | Start sector | End sector
---------------------------------------------------------
1 | 0:00.32 | 10:15.43 | 32 | 46199
2 | 10:16.00 | 13:09.20 | 46200 | 105394
3 | 23:25.20 | 9:10.45 | 105395 | 146689
4 | 32:35.65 | 5:31.55 | 146690 | 171569
5 | 38:07.45 | 11:35.12 | 171570 | 223706
6 | 49:42.57 | 9:46.70 | 223707 | 267726
7 | 59:29.52 | 11:54.28 | 267727 | 321304
Range status and errors
Selected range
Filename E:\Beethoven - Quatuor Vegh\Ludwig van Beethoven - Beethoven - Complete String Quartets CD4.wav
Peak level 100.0 %
Extraction speed 7.9 X
Range quality 100.0 %
Copy CRC D0F2C824
Copy OK
No errors occurred
AccurateRip summary
Track 1 accurately ripped (confidence 3) [85259C32] (AR v2)
Track 2 accurately ripped (confidence 3) [16A30DE3] (AR v2)
Track 3 accurately ripped (confidence 3) [76A6D178] (AR v2)
Track 4 accurately ripped (confidence 3) [92661AC6] (AR v2)
Track 5 accurately ripped (confidence 3) [1100B98F] (AR v2)
Track 6 accurately ripped (confidence 3) [D0652078] (AR v2)
Track 7 accurately ripped (confidence 3) [2810C89A] (AR v2)
All tracks accurately ripped
End of status report
CD 5

скрытый текст

Exact Audio Copy V1.0 beta 3 from 29. August 2011
EAC extraction logfile from 19. April 2014, 13:58
Ludwig van Beethoven / Beethoven - Complete String Quartets
Used drive : HL-DT-STDVD+-RW GT80N Adapter: 0 ID: 1
Read mode : Secure
Utilize accurate stream : Yes
Defeat audio cache : No
Make use of C2 pointers : No
Read offset correction : 102
Overread into Lead-In and Lead-Out : No
Fill up missing offset samples with silence : Yes
Delete leading and trailing silent blocks : No
Null samples used in CRC calculations : Yes
Used interface : Native Win32 interface for Win NT & 2000
Used output format : User Defined Encoder
Selected bitrate : 768 kBit/s
Quality : High
Add ID3 tag : No
Command line compressor : E:\Exact Audio Copy\FLAC\FLAC.EXE
Additional command line options : -6 -V -T "ARTIST=%artist%" -T "TITLE=%title%" -T "ALBUM=%albumtitle%" -T "DATE=%year%" -T "TRACKNUMBER=%tracknr%" -T "GENRE=%genre%" -T "COMMENT=%comment%" -T "BAND=%albuminterpret%" -T "ALBUMARTIST=%albuminterpret%" -T "COMPOSER=%composer%" %haslyrics%--tag-from-file=LYRICS="%lyricsfile%"%haslyrics% -T "DISCNUMBER=%cdnumber%" -T "TOTALDISCS=%totalcds%" -T "TOTALTRACKS=%numtracks%" %hascover%--picture="%coverfile%"%hascover% %source% -o %dest%
TOC of the extracted CD
Track | Start | Length | Start sector | End sector
---------------------------------------------------------
1 | 0:00.33 | 10:29.10 | 33 | 47217
2 | 10:29.43 | 10:14.07 | 47218 | 93274
3 | 20:43.50 | 12:37.70 | 93275 | 150119
4 | 33:21.45 | 7:19.03 | 150120 | 183047
5 | 40:40.48 | 15:25.45 | 183048 | 252467
6 | 56:06.18 | 7:11.72 | 252468 | 284864
7 | 63:18.15 | 7:08.48 | 284865 | 317012
Range status and errors
Selected range
Filename E:\Beethoven - Quatuor Vegh\Ludwig van Beethoven - Beethoven - Complete String Quartets.wav
Peak level 100.0 %
Extraction speed 4.1 X
Range quality 100.0 %
Copy CRC D158BC8B
Copy OK
No errors occurred
AccurateRip summary
Track 1 accurately ripped (confidence 10) [441C29AB] (AR v2)
Track 2 accurately ripped (confidence 10) [DFEFB36B] (AR v2)
Track 3 accurately ripped (confidence 10) [899188CB] (AR v2)
Track 4 accurately ripped (confidence 10) [7F9A1FE1] (AR v2)
Track 5 accurately ripped (confidence 10) [8F1972FB] (AR v2)
Track 6 accurately ripped (confidence 10) [4FD145C9] (AR v2)
Track 7 accurately ripped (confidence 10) [F1A744C0] (AR v2)
All tracks accurately ripped
End of status report
CD 6

скрытый текст

Exact Audio Copy V1.0 beta 3 from 29. August 2011
EAC extraction logfile from 19. April 2014, 14:29
Ludwig van Beethoven / Beethoven - Complete String Quartets
Used drive : HL-DT-STDVD+-RW GT80N Adapter: 0 ID: 1
Read mode : Secure
Utilize accurate stream : Yes
Defeat audio cache : No
Make use of C2 pointers : No
Read offset correction : 102
Overread into Lead-In and Lead-Out : No
Fill up missing offset samples with silence : Yes
Delete leading and trailing silent blocks : No
Null samples used in CRC calculations : Yes
Used interface : Native Win32 interface for Win NT & 2000
Used output format : User Defined Encoder
Selected bitrate : 768 kBit/s
Quality : High
Add ID3 tag : No
Command line compressor : E:\Exact Audio Copy\FLAC\FLAC.EXE
Additional command line options : -6 -V -T "ARTIST=%artist%" -T "TITLE=%title%" -T "ALBUM=%albumtitle%" -T "DATE=%year%" -T "TRACKNUMBER=%tracknr%" -T "GENRE=%genre%" -T "COMMENT=%comment%" -T "BAND=%albuminterpret%" -T "ALBUMARTIST=%albuminterpret%" -T "COMPOSER=%composer%" %haslyrics%--tag-from-file=LYRICS="%lyricsfile%"%haslyrics% -T "DISCNUMBER=%cdnumber%" -T "TOTALDISCS=%totalcds%" -T "TOTALTRACKS=%numtracks%" %hascover%--picture="%coverfile%"%hascover% %source% -o %dest%
TOC of the extracted CD
Track | Start | Length | Start sector | End sector
---------------------------------------------------------
1 | 0:00.33 | 4:13.50 | 33 | 19057
2 | 4:14.08 | 11:54.10 | 19058 | 72617
3 | 16:08.18 | 5:03.57 | 72618 | 95399
4 | 21:12.00 | 9:59.35 | 95400 | 140359
5 | 31:11.35 | 10:14.20 | 140360 | 186429
6 | 41:25.55 | 16:25.08 | 186430 | 260312
7 | 57:50.63 | 9:43.35 | 260313 | 304072
Range status and errors
Selected range
Filename E:\Beethoven - Quatuor Vegh\Ludwig van Beethoven - Beethoven - Complete String Quartets CD6.wav
Peak level 100.0 %
Extraction speed 7.8 X
Range quality 100.0 %
Copy CRC 3ACCE49B
Copy OK
No errors occurred
AccurateRip summary
Track 1 accurately ripped (confidence 10) [3A1D41F2] (AR v2)
Track 2 accurately ripped (confidence 10) [0A64BC11] (AR v2)
Track 3 accurately ripped (confidence 10) [512C3EEA] (AR v2)
Track 4 accurately ripped (confidence 10) [D859F33B] (AR v2)
Track 5 accurately ripped (confidence 10) [14A63DD2] (AR v2)
Track 6 accurately ripped (confidence 10) [FC79BA5F] (AR v2)
Track 7 accurately ripped (confidence 10) [1911AEC9] (AR v2)
All tracks accurately ripped
End of status report
CD 7

скрытый текст

Exact Audio Copy V1.0 beta 3 from 29. August 2011
EAC extraction logfile from 19. April 2014, 14:54
Ludwig van Beethoven / Beethoven - Complete String Quartets
Used drive : HL-DT-STDVD+-RW GT80N Adapter: 0 ID: 1
Read mode : Secure
Utilize accurate stream : Yes
Defeat audio cache : No
Make use of C2 pointers : No
Read offset correction : 102
Overread into Lead-In and Lead-Out : No
Fill up missing offset samples with silence : Yes
Delete leading and trailing silent blocks : No
Null samples used in CRC calculations : Yes
Used interface : Native Win32 interface for Win NT & 2000
Used output format : User Defined Encoder
Selected bitrate : 768 kBit/s
Quality : High
Add ID3 tag : No
Command line compressor : E:\Exact Audio Copy\FLAC\FLAC.EXE
Additional command line options : -6 -V -T "ARTIST=%artist%" -T "TITLE=%title%" -T "ALBUM=%albumtitle%" -T "DATE=%year%" -T "TRACKNUMBER=%tracknr%" -T "GENRE=%genre%" -T "COMMENT=%comment%" -T "BAND=%albuminterpret%" -T "ALBUMARTIST=%albuminterpret%" -T "COMPOSER=%composer%" %haslyrics%--tag-from-file=LYRICS="%lyricsfile%"%haslyrics% -T "DISCNUMBER=%cdnumber%" -T "TOTALDISCS=%totalcds%" -T "TOTALTRACKS=%numtracks%" %hascover%--picture="%coverfile%"%hascover% %source% -o %dest%
TOC of the extracted CD
Track | Start | Length | Start sector | End sector
---------------------------------------------------------
1 | 0:00.32 | 13:49.03 | 32 | 62209
2 | 13:49.35 | 1:59.70 | 62210 | 71204
3 | 15:49.30 | 6:33.17 | 71205 | 100696
4 | 22:22.47 | 3:25.38 | 100697 | 116109
5 | 25:48.10 | 7:21.47 | 116110 | 149231
6 | 33:09.57 | 15:42.55 | 149232 | 219936
7 | 48:52.37 | 7:40.25 | 219937 | 254461
Range status and errors
Selected range
Filename E:\Beethoven - Quatuor Vegh\Ludwig van Beethoven - Beethoven - Complete String Quartets CD7.wav
Peak level 97.8 %
Extraction speed 6.8 X
Range quality 100.0 %
Copy CRC D8FD1ED9
Copy OK
No errors occurred
AccurateRip summary
Track 1 accurately ripped (confidence 10) [2DD106E7] (AR v2)
Track 2 accurately ripped (confidence 10) [0708326A] (AR v2)
Track 3 accurately ripped (confidence 10) [E5E05144] (AR v2)
Track 4 accurately ripped (confidence 10) [F876E4E9] (AR v2)
Track 5 accurately ripped (confidence 10) [CA4DBA1B] (AR v2)
Track 6 accurately ripped (confidence 10) [628188F0] (AR v2)
Track 7 accurately ripped (confidence 10) [E6385E97] (AR v2)
All tracks accurately ripped
End of status report
CD 8

скрытый текст

Exact Audio Copy V1.0 beta 3 from 29. August 2011
EAC extraction logfile from 19. April 2014, 15:31
Ludwig van Beethoven / Beethoven - Complete String Quartets
Used drive : HL-DT-STDVD+-RW GT80N Adapter: 0 ID: 1
Read mode : Secure
Utilize accurate stream : Yes
Defeat audio cache : No
Make use of C2 pointers : No
Combined read/write offset correction : 0
Overread into Lead-In and Lead-Out : No
Fill up missing offset samples with silence : Yes
Delete leading and trailing silent blocks : No
Null samples used in CRC calculations : Yes
Used interface : Native Win32 interface for Win NT & 2000
Used output format : User Defined Encoder
Selected bitrate : 768 kBit/s
Quality : High
Add ID3 tag : No
Command line compressor : E:\Exact Audio Copy\FLAC\FLAC.EXE
Additional command line options : -6 -V -T "ARTIST=%artist%" -T "TITLE=%title%" -T "ALBUM=%albumtitle%" -T "DATE=%year%" -T "TRACKNUMBER=%tracknr%" -T "GENRE=%genre%" -T "COMMENT=%comment%" -T "BAND=%albuminterpret%" -T "ALBUMARTIST=%albuminterpret%" -T "COMPOSER=%composer%" %haslyrics%--tag-from-file=LYRICS="%lyricsfile%"%haslyrics% -T "DISCNUMBER=%cdnumber%" -T "TOTALDISCS=%totalcds%" -T "TOTALTRACKS=%numtracks%" %hascover%--picture="%coverfile%"%hascover% %source% -o %dest%
TOC of the extracted CD
Track | Start | Length | Start sector | End sector
---------------------------------------------------------
1 | 0:00.33 | 41:04.40 | 33 | 184872
2 | 41:04.73 | 6:51.70 | 184873 | 215767
3 | 47:56.68 | 3:38.65 | 215768 | 232182
4 | 51:35.58 | 7:32.67 | 232183 | 266149
5 | 59:08.50 | 6:42.63 | 266150 | 296362
Range status and errors
Selected range
Filename E:\Beethoven - Quatuor Vegh\Ludwig van Beethoven - Beethoven - Complete String Quartets CD8.wav
Peak level 100.0 %
Extraction speed 7.0 X
Range quality 100.0 %
Copy CRC 7A254DA1
Copy OK
No errors occurred
End of status report

Содержание индексной карты (.CUE)

CD 1

скрытый текст

REM GENRE Classical
REM DISCID 630D7108
REM COMMENT "ExactAudioCopy v1.0b3"
PERFORMER "Ludwig van Beethoven"
TITLE "Beethoven - Complete String Quartets"
FILE "Ludwig van Beethoven - Beethoven - Complete String Quartets CD1.flac" WAVE
TRACK 01 AUDIO
TITLE "Premier Quatuor opus 18/I - I. Allegro con brio"
PERFORMER "Ludwig van Beethoven"
FLAGS PRE
INDEX 00 00:00:00
INDEX 01 00:00:32
TRACK 02 AUDIO
TITLE "Premier Quatuor opus 18/I - II. Adagio affettuoso ed appassionato"
PERFORMER "Ludwig van Beethoven"
FLAGS PRE
INDEX 00 09:29:32
INDEX 01 09:32:62
TRACK 03 AUDIO
TITLE "Premier Quatuor opus 18/I - III. Scherzo. Allegro molto"
PERFORMER "Ludwig van Beethoven"
FLAGS PRE
INDEX 00 19:04:52
INDEX 01 19:11:42
TRACK 04 AUDIO
TITLE "Premier Quatuor opus 18/I - IV. Allegro"
PERFORMER "Ludwig van Beethoven"
FLAGS PRE
INDEX 00 22:42:45
INDEX 01 22:46:30
TRACK 05 AUDIO
TITLE "CinquiËme Quatuor opus 18/V - I. Allegro"
PERFORMER "Ludwig van Beethoven"
FLAGS PRE
INDEX 00 28:40:32
INDEX 01 28:53:22
TRACK 06 AUDIO
TITLE "CinquiËme Quatuor opus 18/V - II. Menuetto"
PERFORMER "Ludwig van Beethoven"
FLAGS PRE
INDEX 00 36:12:30
INDEX 01 36:13:70
TRACK 07 AUDIO
TITLE "CinquiËme Quatuor opus 18/V - III. Andante cantabile"
PERFORMER "Ludwig van Beethoven"
FLAGS PRE
INDEX 00 42:06:62
INDEX 01 42:11:47
TRACK 08 AUDIO
TITLE "CinquiËme Quatuor opus 18/V - IV. Allegro"
PERFORMER "Ludwig van Beethoven"
FLAGS PRE
INDEX 00 52:23:17
INDEX 01 52:28:10
CD 2

скрытый текст

REM GENRE Classical
REM DISCID A510BA0C
REM COMMENT "ExactAudioCopy v1.0b3"
PERFORMER "Ludwig van Beethoven"
TITLE "Beethoven - Complete String Quartets"
FILE "Ludwig van Beethoven - Beethoven - Complete String Quartets CD2.flac" WAVE
TRACK 01 AUDIO
TITLE "DeuxiËme Quatuor opus 18/II - I. Allegro"
PERFORMER "Ludwig van Beethoven"
FLAGS PRE
INDEX 00 00:00:00
INDEX 01 00:00:32
TRACK 02 AUDIO
TITLE "DeuxiËme Quatuor opus 18/II - II. Adagio cantabile"
PERFORMER "Ludwig van Beethoven"
FLAGS PRE
INDEX 00 07:28:22
INDEX 01 07:30:25
TRACK 03 AUDIO
TITLE "DeuxiËme Quatuor opus 18/II - III. Scherzo. Allegro"
PERFORMER "Ludwig van Beethoven"
FLAGS PRE
INDEX 00 13:49:25
INDEX 01 13:53:57
TRACK 04 AUDIO
TITLE "DeuxiËme Quatuor opus 18/II - IV. Allegro molto, quasi Presto"
PERFORMER "Ludwig van Beethoven"
FLAGS PRE
INDEX 00 18:28:30
INDEX 01 18:33:27
TRACK 05 AUDIO
TITLE "TroisiËme Quatuor opus 18/III - I. Allegro"
PERFORMER "Ludwig van Beethoven"
FLAGS PRE
INDEX 00 23:46:27
INDEX 01 24:00:45
TRACK 06 AUDIO
TITLE "TroisiËme Quatuor opus 18/III - II. Andante con moto"
PERFORMER "Ludwig van Beethoven"
FLAGS PRE
INDEX 00 32:00:10
INDEX 01 32:07:67
TRACK 07 AUDIO
TITLE "TroisiËme Quatuor opus 18/III - III. Allegro"
PERFORMER "Ludwig van Beethoven"
FLAGS PRE
INDEX 00 39:33:56
INDEX 01 39:41:15
TRACK 08 AUDIO
TITLE "TroisiËme Quatuor opus 18/III - IV. Presto"
PERFORMER "Ludwig van Beethoven"
FLAGS PRE
INDEX 00 42:49:20
INDEX 01 42:49:47
TRACK 09 AUDIO
TITLE "QuatriËme Quatuor opus 18/IV - I. Allegro ma non tanto"
PERFORMER "Ludwig van Beethoven"
FLAGS PRE
INDEX 00 47:38:25
INDEX 01 47:52:60
TRACK 10 AUDIO
TITLE "QuatriËme Quatuor opus 18/IV - II. Scherzo. Andante scherzoso quasi Allegretto"
PERFORMER "Ludwig van Beethoven"
FLAGS PRE
INDEX 00 56:59:20
INDEX 01 57:04:25
TRACK 11 AUDIO
TITLE "QuatriËme Quatuor opus 18/IV - III. Menuetto. Allegretto"
PERFORMER "Ludwig van Beethoven"
FLAGS PRE
INDEX 00 62:22:67
INDEX 01 62:28:52
TRACK 12 AUDIO
TITLE "QuatriËme Quatuor opus 18/IV - IV. Allegro"
PERFORMER "Ludwig van Beethoven"
FLAGS PRE
INDEX 00 66:53:48
INDEX 01 66:57:40
CD 3

скрытый текст

REM GENRE Classical
REM DISCID 740F7807
REM COMMENT "ExactAudioCopy v1.0b3"
PERFORMER "Ludwig van Beethoven"
TITLE "Beethoven - Complete String Quartets"
FILE "Ludwig van Beethoven - Beethoven - Complete String Quartets CD3.flac" WAVE
TRACK 01 AUDIO
TITLE "SixiËme Quatuor opus 18/VI - I. Allegro con brio"
PERFORMER "Ludwig van Beethoven"
FLAGS PRE
INDEX 00 00:00:00
INDEX 01 00:00:32
TRACK 02 AUDIO
TITLE "SixiËme Quatuor opus 18/VI - II. Adagio, ma non troppo"
PERFORMER "Ludwig van Beethoven"
FLAGS PRE
INDEX 00 06:32:27
INDEX 01 06:36:42
TRACK 03 AUDIO
TITLE "SixiËme Quatuor opus 18/VI - III. Scherzo. Allegro"
PERFORMER "Ludwig van Beethoven"
FLAGS PRE
INDEX 00 13:09:06
INDEX 01 13:11:37
TRACK 04 AUDIO
TITLE "SixiËme Quatuor opus 18/VI - IV. La Malinconia. Adagio - Allegretto quasi All..."
PERFORMER "Ludwig van Beethoven"
FLAGS PRE
INDEX 00 16:33:17
INDEX 01 16:37:32
TRACK 05 AUDIO
TITLE "SeptiËme Quatuor opus 59/I - I. Allegro"
PERFORMER "Ludwig van Beethoven"
FLAGS PRE
INDEX 00 24:55:02
INDEX 01 25:10:10
TRACK 06 AUDIO
TITLE "SeptiËme Quatuor opus 59/I - II. Allegretto vivace e sempre scherzando"
PERFORMER "Ludwig van Beethoven"
FLAGS PRE
INDEX 00 36:11:06
INDEX 01 36:15:45
TRACK 07 AUDIO
TITLE "SeptiËme Quatuor opus 59/I - III. Adagio molto e mesto - attacca: IV. Finale...."
PERFORMER "Ludwig van Beethoven"
FLAGS PRE
INDEX 00 46:01:02
INDEX 01 46:05:45
CD 4

скрытый текст

REM GENRE Classical
REM DISCID 6F10BC07
REM COMMENT "ExactAudioCopy v1.0b3"
PERFORMER "Ludwig van Beethoven"
TITLE "Beethoven - Complete String Quartets"
FILE "Ludwig van Beethoven - Beethoven - Complete String Quartets CD4.flac" WAVE
TRACK 01 AUDIO
TITLE "HuitiËme Quatuor opus 59/II - I. Allegro"
PERFORMER "Ludwig van Beethoven"
FLAGS PRE
INDEX 00 00:00:00
INDEX 01 00:00:32
TRACK 02 AUDIO
TITLE "HuitiËme Quatuor opus 59/II - II. Molto adagio"
PERFORMER "Ludwig van Beethoven"
FLAGS PRE
INDEX 00 10:11:05
INDEX 01 10:16:00
TRACK 03 AUDIO
TITLE "HuitiËme Quatuor opus 59/II - III. Allegretto"
PERFORMER "Ludwig van Beethoven"
FLAGS PRE
INDEX 00 23:18:52
INDEX 01 23:25:20
TRACK 04 AUDIO
TITLE "HuitiËme Quatuor opus 59/II - IV. Finale. Presto"
PERFORMER "Ludwig van Beethoven"
FLAGS PRE
INDEX 00 32:31:10
INDEX 01 32:35:65
TRACK 05 AUDIO
TITLE "NeuviËme Quatuor opus 59/III - I. Introduzione. Andante con moto - Allegro vi..."
PERFORMER "Ludwig van Beethoven"
FLAGS PRE
INDEX 00 37:56:35
INDEX 01 38:07:45
TRACK 06 AUDIO
TITLE "NeuviËme Quatuor opus 59/III - II. Andante con moto quasi Allegretto"
PERFORMER "Ludwig van Beethoven"
FLAGS PRE
INDEX 00 49:37:42
INDEX 01 49:42:57
TRACK 07 AUDIO
TITLE "NeuviËme Quatuor opus 59/III - III. Menuetto. Grazioso - attacca: IV. Allegro..."
PERFORMER "Ludwig van Beethoven"
FLAGS PRE
INDEX 00 59:26:00
INDEX 01 59:29:52
CD 5

скрытый текст

REM GENRE Classical
REM DISCID 48108207
REM COMMENT "ExactAudioCopy v1.0b3"
PERFORMER "Ludwig van Beethoven"
TITLE "Beethoven - Complete String Quartets"
FILE "Ludwig van Beethoven - Beethoven - Complete String Quartets CD5.flac" WAVE
TRACK 01 AUDIO
TITLE "DixiËme Quatuor opus 74 - I. Poco Adagio - Allegro"
PERFORMER "Ludwig van Beethoven"
FLAGS PRE
INDEX 00 00:00:00
INDEX 01 00:00:33
TRACK 02 AUDIO
TITLE "DixiËme Quatuor opus 74 - II. Adagio ma non troppo"
PERFORMER "Ludwig van Beethoven"
FLAGS PRE
INDEX 00 10:23:31
INDEX 01 10:29:43
TRACK 03 AUDIO
TITLE "DixiËme Quatuor opus 74 - III. Presto - attacca: IV. Allegretto con variazioni"
PERFORMER "Ludwig van Beethoven"
FLAGS PRE
INDEX 00 20:39:29
INDEX 01 20:43:50
TRACK 04 AUDIO
TITLE "DouziËme Quatuor opus 127 - I. Maestoso - Allegro"
PERFORMER "Ludwig van Beethoven"
FLAGS PRE
INDEX 00 33:07:10
INDEX 01 33:21:45
TRACK 05 AUDIO
TITLE "DouziËme Quatuor opus 127 - II. Adagio, ma non troppo e molto cantabile"
PERFORMER "Ludwig van Beethoven"
FLAGS PRE
INDEX 00 40:37:22
INDEX 01 40:40:48
TRACK 06 AUDIO
TITLE "DouziËme Quatuor opus 127 - III. Scherzando vivace"
PERFORMER "Ludwig van Beethoven"
FLAGS PRE
INDEX 00 56:02:65
INDEX 01 56:06:18
TRACK 07 AUDIO
TITLE "DouziËme Quatuor opus 127 - IV. Finale"
PERFORMER "Ludwig van Beethoven"
FLAGS PRE
INDEX 00 63:13:38
INDEX 01 63:18:15
CD 6

скрытый текст

REM GENRE Classical
REM DISCID 650FD607
REM COMMENT "ExactAudioCopy v1.0b3"
PERFORMER "Ludwig van Beethoven"
TITLE "Beethoven - Complete String Quartets"
FILE "Ludwig van Beethoven - Beethoven - Complete String Quartets CD6.flac" WAVE
TRACK 01 AUDIO
TITLE "OnziËme Quatuor opus 95 - I. Allegro con brio"
PERFORMER "Ludwig van Beethoven"
FLAGS PRE
INDEX 00 00:00:00
INDEX 01 00:00:33
TRACK 02 AUDIO
TITLE "OnziËme Quatuor opus 95 - II. Allegretto ma non troppo - attacca: III. Allegr..."
PERFORMER "Ludwig van Beethoven"
FLAGS PRE
INDEX 00 04:11:53
INDEX 01 04:14:08
TRACK 03 AUDIO
TITLE "OnziËme Quatuor opus 95 - IV. Larghetto - Allegretto agitato"
PERFORMER "Ludwig van Beethoven"
FLAGS PRE
INDEX 00 16:04:65
INDEX 01 16:08:18
TRACK 04 AUDIO
TITLE "QuinziËme Quatuor opus 132 - I. Assai sostenuto - Allegro"
PERFORMER "Ludwig van Beethoven"
FLAGS PRE
INDEX 00 20:57:53
INDEX 01 21:12:00
TRACK 05 AUDIO
TITLE "QuinziËme Quatuor opus 132 - II. Allegro ma non tanto"
PERFORMER "Ludwig van Beethoven"
FLAGS PRE
INDEX 00 31:08:48
INDEX 01 31:11:35
TRACK 06 AUDIO
TITLE "QuinziËme Quatuor opus 132 - III. Canzona di ringraziamento - Molto adagio"
PERFORMER "Ludwig van Beethoven"
FLAGS PRE
INDEX 00 41:19:45
INDEX 01 41:25:55
TRACK 07 AUDIO
TITLE "QuinziËme Quatuor opus 132 - IV. Alla marcia, assai vivace - attacca: V. Alle..."
PERFORMER "Ludwig van Beethoven"
FLAGS PRE
INDEX 00 57:44:45
INDEX 01 57:50:63
CD 7

скрытый текст

TITLE "Beethoven - Complete String Quartets"
PERFORMER "Ludwig van Beethoven"
REM GENRE "Classical"
REM DISCNUMBER 7
REM TOTALDISCS 8
REM DISCID 5A0D4007
FILE "Ludwig van Beethoven - Beethoven - Complete String Quartets CD7.flac" WAVE
TRACK 01 AUDIO
TITLE "Treizième Quatuor opus 130 - I. Adagio ma non troppo - Allegro"
PERFORMER "Ludwig van Beethoven"
REM COMMENT "ExactAudioCopy v1.0b3"
INDEX 00 00:00:00
INDEX 01 00:00:32
TRACK 02 AUDIO
TITLE "Treizième Quatuor opus 130 - II. Presto"
PERFORMER "Ludwig van Beethoven"
REM COMMENT "ExactAudioCopy v1.0b3"
INDEX 00 13:43:50
INDEX 01 13:49:35
TRACK 03 AUDIO
TITLE "Treizième Quatuor opus 130 - III. Andante con moto ma non troppo"
PERFORMER "Ludwig van Beethoven"
REM COMMENT "ExactAudioCopy v1.0b3"
INDEX 01 15:49:30
TRACK 04 AUDIO
TITLE "Treizième Quatuor opus 130 - IV. Alla danza tedesca. Allegro assai"
PERFORMER "Ludwig van Beethoven"
REM COMMENT "ExactAudioCopy v1.0b3"
INDEX 00 22:17:72
INDEX 01 22:22:47
TRACK 05 AUDIO
TITLE "Treizième Quatuor opus 130 - V. Cavatina. Adagio molto espressivo"
PERFORMER "Ludwig van Beethoven"
REM COMMENT "ExactAudioCopy v1.0b3"
INDEX 00 25:44:32
INDEX 01 25:48:10
TRACK 06 AUDIO
TITLE "Treizième Quatuor opus 130 - VIa. Grande Fugue (première finale) opus 133"
PERFORMER "Ludwig van Beethoven"
REM COMMENT "ExactAudioCopy v1.0b3"
INDEX 00 33:07:17
INDEX 01 33:09:57
TRACK 07 AUDIO
TITLE "Treizième Quatuor opus 130 - VIb. Allegro (deuxième finale)"
PERFORMER "Ludwig van Beethoven"
REM COMMENT "ExactAudioCopy v1.0b3"
INDEX 00 48:44:73
INDEX 01 48:52:37
CD 8

скрытый текст

TITLE "Beethoven - Complete String Quartets"
PERFORMER "Ludwig van Beethoven"
REM GENRE "Classical"
REM DISCNUMBER 8
REM TOTALDISCS 8
REM DISCID 4D0F6F05
FILE "Ludwig van Beethoven - Beethoven - Complete String Quartets CD8.flac" WAVE
TRACK 01 AUDIO
TITLE "Quatorzième Quatuor, opus 131"
PERFORMER "Ludwig van Beethoven"
FLAGS PRE
REM COMMENT "ExactAudioCopy v1.0b3"
INDEX 00 00:00:00
INDEX 01 00:00:33
TRACK 02 AUDIO
TITLE "Seizième Quatuor, opus 135 - I. Allegretto"
PERFORMER "Ludwig van Beethoven"
FLAGS PRE
REM COMMENT "ExactAudioCopy v1.0b3"
INDEX 00 40:52:28
INDEX 01 41:04:73
TRACK 03 AUDIO
TITLE "Seizième Quatuor, opus 135 - II. Vivace"
PERFORMER "Ludwig van Beethoven"
FLAGS PRE
REM COMMENT "ExactAudioCopy v1.0b3"
INDEX 00 47:53:39
INDEX 01 47:56:68
TRACK 04 AUDIO
TITLE "Seizième Quatuor, opus 135 - III. Lento assai, cantante e tranquillo"
PERFORMER "Ludwig van Beethoven"
FLAGS PRE
REM COMMENT "ExactAudioCopy v1.0b3"
INDEX 00 51:32:60
INDEX 01 51:35:58
TRACK 05 AUDIO
TITLE "Seizième Quatuor, opus 135 - IV. Grave ma non troppo tratto - Allegro"
PERFORMER "Ludwig van Beethoven"
FLAGS PRE
REM COMMENT "ExactAudioCopy v1.0b3"
INDEX 00 59:05:16
INDEX 01 59:08:50
Доп. информация: Scans in english only



Показать сообщения:    

Текущее время: 03-Дек 14:34

Часовой пояс: UTC + 3


Вы не можете начинать темы
Вы не можете отвечать на сообщения
Вы не можете редактировать свои сообщения
Вы не можете удалять свои сообщения
Вы не можете голосовать в опросах
Вы не можете прикреплять файлы к сообщениям
Вы не можете скачивать файлы