(Classical, Chamber Music) Zoltan Kodaly - String Quartets Nos. 1 & 2, Intermezzo, Gavotte / Dante Quartet - 2014, FLAC (tracks+.cue) lossless


 

[Цитировать]

Zoltan Kodaly - String Quartets Nos. 1 & 2, Intermezzo, Gavotte / Dante Quartet
Жанр: Classical, Chamber Music
Страна-производитель диска: England
Год издания диска: 2014
Издатель (лейбл): Hyperion
Номер по каталогу: 67999
Дата записи: 2013
Аудиокодек: FLAC
Тип рипа: tracks+.cue
Битрейт аудио: lossless
Продолжительность: 01:06:28
Источник: скачано с
сайт-источник/ник/другое: Thanks to the original releaser
Наличие сканов в содержимом раздачи: да
Zoltan Kodaly (1882 –1967)
Треклист:
String Quartet No. 1 Op. 2 [41'18]
1. Andante poco rubato – Allegro [11'54]
2. Lento assai, tranquillo [12'52]
3. Presto [4'05]
4. Allegro [12'27]
5. Intermezzo [5'10]
6. Gavotte [2'35]
String Quartet No. 2 Op. 10 [17'31]
7. Allegro [6'00]
8. Andante, quasi recit. [4'52]
9. Allegro giocoso [6'39]
Исполнители:
Krysia Osostowicz - violin
Giles Francis - violin (except track 5)
Rachel Roberts - viola
Richard Jenkinson - cello

Лог создания рипа

Exact Audio Copy V1.0 beta 3 from 29. August 2011
EAC extraction logfile from 6. March 2014, 18:21
Zoltán Kodály / String Quartets Nos. 1 & 2, Intermezzo & Gavotte (Dante Quartet)
Used drive : TSSTcorpCDDVDW TS-H653J Adapter: 6 ID: 0
Read mode : SecureUtilize accurate stream : YesDefeat audio cache : YesMake use of C2 pointers : No
Read offset correction : 6Overread into Lead-In and Lead-Out : NoFill up missing offset samples with silence : YesDelete leading and trailing silent blocks : NoNull samples used in CRC calculations : YesUsed interface : Native Win32 interface for Win NT & 2000Gap handling : Appended to previous track
Used output format : User Defined EncoderSelected bitrate : 1024 kBit/sQuality : HighAdd ID3 tag : NoCommand line compressor : C:\Program Files (x86)\Exact Audio Copy\Flac\flac.exeAdditional command line options : -8 -V -T "ARTIST=%artist%" -T "TITLE=%title%" -T "ALBUM=%albumtitle%" -T "DATE=%year%" -T "TRACKNUMBER=%tracknr%" -T "GENRE=%genre%" -T "PERFORMER=%albuminterpret%" -T "COMPOSER=%composer%" %haslyrics%--tag-from-file=LYRICS="%lyricsfile%"%haslyrics% -T "ALBUMARTIST=%albumartist%" -T "DISCNUMBER=%cdnumber%" -T "TOTALDISCS=%totalcds%" -T "TOTALTRACKS=%numtracks%" -T "COMMENT=%comment%" %source% -o %dest%
TOC of the extracted CD
Track | Start | Length | Start sector | End sector --------------------------------------------------------- 1 | 0:00.00 | 11:54.67 | 0 | 53616 2 | 11:54.67 | 12:51.43 | 53617 | 111484 3 | 24:46.35 | 4:05.22 | 111485 | 129881 4 | 28:51.57 | 12:26.63 | 129882 | 185894 5 | 41:18.45 | 5:10.21 | 185895 | 209165 6 | 46:28.66 | 2:34.39 | 209166 | 220754 7 | 49:03.30 | 5:59.47 | 220755 | 247726 8 | 55:03.02 | 4:51.57 | 247727 | 269608 9 | 59:54.59 | 6:38.16 | 269609 | 299474
Track 1
Filename D:\Music\Classical\Zoltán Kodály\Zoltán Kodály - String Quartets Nos. 1 & 2, Intermezzo & Gavotte (Dante Quartet)\01 - String Quartet no. 1, op. 2- I. Andante poco rubato - Allegro.wav
Pre-gap length 0:00:02.00
Peak level 99.6 % Extraction speed 5.2 X Track quality 100.0 % Test CRC 34B0E0D9 Copy CRC 34B0E0D9 Track not present in AccurateRip database Copy OK
Track 2
Filename D:\Music\Classical\Zoltán Kodály\Zoltán Kodály - String Quartets Nos. 1 & 2, Intermezzo & Gavotte (Dante Quartet)\02 - String Quartet no. 1, op. 2- II. Lento assai, tranquillo.wav
Peak level 74.4 % Extraction speed 5.9 X Track quality 99.9 % Test CRC 1DC89598 Copy CRC 1DC89598 Track not present in AccurateRip database Copy OK
Track 3
Filename D:\Music\Classical\Zoltán Kodály\Zoltán Kodály - String Quartets Nos. 1 & 2, Intermezzo & Gavotte (Dante Quartet)\03 - String Quartet no. 1, op. 2- III. Presto.wav
Peak level 63.2 % Extraction speed 6.6 X Track quality 100.0 % Test CRC CE950ED7 Copy CRC CE950ED7 Track not present in AccurateRip database Copy OK
Track 4
Filename D:\Music\Classical\Zoltán Kodály\Zoltán Kodály - String Quartets Nos. 1 & 2, Intermezzo & Gavotte (Dante Quartet)\04 - String Quartet no. 1, op. 2- IV. Allegro.wav
Peak level 68.0 % Extraction speed 7.8 X Track quality 100.0 % Test CRC 82EA1FD4 Copy CRC 82EA1FD4 Track not present in AccurateRip database Copy OK
Track 5
Filename D:\Music\Classical\Zoltán Kodály\Zoltán Kodály - String Quartets Nos. 1 & 2, Intermezzo & Gavotte (Dante Quartet)\05 - Intermezzo.wav
Pre-gap length 0:00:12.53
Peak level 76.6 % Extraction speed 7.8 X Track quality 100.0 % Test CRC 8C3DDBE3 Copy CRC 8C3DDBE3 Track not present in AccurateRip database Copy OK
Track 6
Filename D:\Music\Classical\Zoltán Kodály\Zoltán Kodály - String Quartets Nos. 1 & 2, Intermezzo & Gavotte (Dante Quartet)\06 - Gavotte.wav
Pre-gap length 0:00:05.66
Peak level 39.2 % Extraction speed 7.2 X Track quality 100.0 % Test CRC A0B765CA Copy CRC A0B765CA Track not present in AccurateRip database Copy OK
Track 7
Filename D:\Music\Classical\Zoltán Kodály\Zoltán Kodály - String Quartets Nos. 1 & 2, Intermezzo & Gavotte (Dante Quartet)\07 - String Quartet no. 2, op. 10- I. Allegro.wav
Pre-gap length 0:00:14.56
Peak level 81.8 % Extraction speed 8.4 X Track quality 100.0 % Test CRC 85B713ED Copy CRC 85B713ED Track not present in AccurateRip database Copy OK
Track 8
Filename D:\Music\Classical\Zoltán Kodály\Zoltán Kodály - String Quartets Nos. 1 & 2, Intermezzo & Gavotte (Dante Quartet)\08 - String Quartet no. 2, op. 10- II. Andante, quasi recit..wav
Peak level 60.9 % Extraction speed 8.6 X Track quality 100.0 % Test CRC 54176273 Copy CRC 54176273 Track not present in AccurateRip database Copy OK
Track 9
Filename D:\Music\Classical\Zoltán Kodály\Zoltán Kodály - String Quartets Nos. 1 & 2, Intermezzo & Gavotte (Dante Quartet)\09 - String Quartet no. 2, op. 10- III. Allegro giocoso.wav
Peak level 76.3 % Extraction speed 9.1 X Track quality 100.0 % Test CRC 92692309 Copy CRC 92692309 Track not present in AccurateRip database Copy OK
None of the tracks are present in the AccurateRip database
No errors occurred
End of status report
---- CUETools DB Plugin V2.1.3
[CTDB TOCID: _8NjzRLWDX9wf8VyGLCcPzM2aL0-] disk not present in database, Submit result: _8NjzRLWDX9wf8VyGLCcPzM2aL0- has been uploaded
==== Log checksum 8C811E5A744FE104CA1E772A2F24A768B6BDC8002FC508A7510FD55376DEE4E0 ====

Содержание индексной карты (.CUE)

REM GENRE ClassicalREM DATE 2014REM DISCID 890F9909REM COMMENT "ExactAudioCopy v1.0b3"CATALOG 0034571179995PERFORMER "Zoltбn Kodбly"TITLE "String Quartets Nos. 1 & 2, Intermezzo & Gavotte (Dante Quartet)"FILE "01 - String Quartet no. 1, op. 2- I. Andante poco rubato - Allegro.wav" WAVE TRACK 01 AUDIO TITLE "String Quartet no. 1, op. 2: I. Andante poco rubato - Allegro" PERFORMER "Zoltбn Kodбly" ISRC GBAJY1499901 INDEX 01 00:00:00FILE "02 - String Quartet no. 1, op. 2- II. Lento assai, tranquillo.wav" WAVE TRACK 02 AUDIO TITLE "String Quartet no. 1, op. 2: II. Lento assai, tranquillo" PERFORMER "Zoltбn Kodбly" ISRC GBAJY1499902 INDEX 01 00:00:00FILE "03 - String Quartet no. 1, op. 2- III. Presto.wav" WAVE TRACK 03 AUDIO TITLE "String Quartet no. 1, op. 2: III. Presto" PERFORMER "Zoltбn Kodбly" ISRC GBAJY1499903 INDEX 01 00:00:00FILE "04 - String Quartet no. 1, op. 2- IV. Allegro.wav" WAVE TRACK 04 AUDIO TITLE "String Quartet no. 1, op. 2: IV. Allegro" PERFORMER "Zoltбn Kodбly" ISRC GBAJY1499904 INDEX 01 00:00:00 TRACK 05 AUDIO TITLE "Intermezzo" PERFORMER "Zoltбn Kodбly" ISRC GBAJY1499905 INDEX 00 12:14:23FILE "05 - Intermezzo.wav" WAVE INDEX 01 00:00:00 TRACK 06 AUDIO TITLE "Gavotte" PERFORMER "Zoltбn Kodбly" ISRC GBAJY1499906 INDEX 00 05:04:46FILE "06 - Gavotte.wav" WAVE INDEX 01 00:00:00 TRACK 07 AUDIO TITLE "String Quartet no. 2, op. 10: I. Allegro" PERFORMER "Zoltбn Kodбly" ISRC GBAJY1499907 INDEX 00 02:19:72FILE "07 - String Quartet no. 2, op. 10- I. Allegro.wav" WAVE INDEX 01 00:00:00FILE "08 - String Quartet no. 2, op. 10- II. Andante, quasi recit..wav" WAVE TRACK 08 AUDIO TITLE "String Quartet no. 2, op. 10: II. Andante, quasi recit." PERFORMER "Zoltбn Kodбly" ISRC GBAJY1499908 INDEX 01 00:00:00FILE "09 - String Quartet no. 2, op. 10- III. Allegro giocoso.wav" WAVE TRACK 09 AUDIO TITLE "String Quartet no. 2, op. 10: III. Allegro giocoso" PERFORMER "Zoltбn Kodбly" ISRC GBAJY1499909 INDEX 01 00:00:00

Dynamic Range Meter

foobar2000 1.2.2 / Dynamic Range Meter 1.1.1log date: 2014-03-21 14:30:35
--------------------------------------------------------------------------------Analyzed: Zoltán Kodály / String Quartets Nos. 1 & 2, Intermezzo & Gavotte (Dante Quartet)--------------------------------------------------------------------------------
DR Peak RMS Duration Track--------------------------------------------------------------------------------DR15 -0.03 dB -24.13 dB 11:55 01-String Quartet no. 1, op. 2: I. Andante poco rubato - AllegroDR18 -2.56 dB -29.01 dB 12:52 02-String Quartet no. 1, op. 2: II. Lento assai, tranquilloDR15 -3.98 dB -24.26 dB 4:05 03-String Quartet no. 1, op. 2: III. PrestoDR17 -3.35 dB -26.23 dB 12:27 04-String Quartet no. 1, op. 2: IV. AllegroDR15 -2.31 dB -24.35 dB 5:10 05-IntermezzoDR13 -8.12 dB -27.66 dB 2:35 06-GavotteDR14 -1.73 dB -22.84 dB 6:00 07-String Quartet no. 2, op. 10: I. AllegroDR14 -4.30 dB -26.11 dB 4:52 08-String Quartet no. 2, op. 10: II. Andante, quasi recit.DR16 -2.34 dB -23.46 dB 6:38 09-String Quartet no. 2, op. 10: III. Allegro giocoso--------------------------------------------------------------------------------
Number of tracks: 9Official DR value: DR15
Samplerate: 44100 HzChannels: 2Bits per sample: 16Bitrate: 563 kbpsCodec: FLAC================================================================================



Показать сообщения:    

Текущее время: 03-Дек 14:33

Часовой пояс: UTC + 3


Вы не можете начинать темы
Вы не можете отвечать на сообщения
Вы не можете редактировать свои сообщения
Вы не можете удалять свои сообщения
Вы не можете голосовать в опросах
Вы не можете прикреплять файлы к сообщениям
Вы не можете скачивать файлы