(Classical) Сергей Танеев, Антон Аренский - Фортепианные квинтеты - Piers Lane, Goldner String Quartet - 2013, FLAC (image+.cue) lossless


 

[Цитировать]

Сергей Танеев, Антон Аренский - Фортепианные квинтеты - Piers Lane, Goldner String Quartet
Жанр: Classical
Страна-производитель диска: UK
Год издания диска: 2013
Издатель (лейбл): Hyperion
Номер по каталогу: CDA67965
Дата записи: 2012
Аудиокодек: FLAC
Тип рипа: image+.cue
Битрейт аудио: lossless
Продолжительность: 68:37
Источник: собственный рип
Наличие сканов в содержимом раздачи: да
Треклист:
Сергей Танеев (1856-1915)
[1]-[4] Фортепианный квинтет соль минор, Op.30
Антон Аренский (1861-1906)
[5]-[8] Фортепианный квинтет ре мажор, Op.51
Исполнители:
Piers Lane piano
Goldner String Quartet
Dene Olding, Dimity Hall violin
Irina Morozova viola
Julian Smiles cello

Лог создания рипа

Exact Audio Copy V1.0 beta 3 from 29. August 2011
EAC extraction logfile from 5. January 2014, 21:26
Piers Lane; Goldner String Quartet / Taneyev, Arensky - Piano Quintets
Used drive : HL-DT-STDVDRAM GSA-4083N Adapter: 1 ID: 0
Read mode : SecureUtilize accurate stream : YesDefeat audio cache : YesMake use of C2 pointers : No
Read offset correction : 667Overread into Lead-In and Lead-Out : NoFill up missing offset samples with silence : YesDelete leading and trailing silent blocks : NoNull samples used in CRC calculations : YesUsed interface : Native Win32 interface for Win NT & 2000
Used output format : User Defined EncoderSelected bitrate : 896 kBit/sQuality : HighAdd ID3 tag : NoCommand line compressor : C:\Program Files\Exact Audio Copy\Flac\flac.exeAdditional command line options : -V -8 %source%
TOC of the extracted CD
Track | Start | Length | Start sector | End sector --------------------------------------------------------- 1 | 0:00.00 | 19:05.36 | 0 | 85910 2 | 19:05.36 | 6:10.31 | 85911 | 113691 3 | 25:15.67 | 8:52.40 | 113692 | 153631 4 | 34:08.32 | 10:23.31 | 153632 | 200387 5 | 44:31.63 | 7:06.01 | 200388 | 232338 6 | 51:37.64 | 6:26.25 | 232339 | 261313 7 | 58:04.14 | 7:05.49 | 261314 | 293237 8 | 65:09.63 | 3:25.12 | 293238 | 308624
Range status and errors
Selected range
Filename J:\New Music\CDA67965 - Taneyev, Arensky - Piano Quintets (Goldner String Quartet, Piers Lane - HYPERION)\Taneyev, Arensky - Piano Quintets.wav
Peak level 99.4 % Extraction speed 2.7 X Range quality 100.0 % Test CRC F3DB88D7 Copy CRC F3DB88D7 Copy OK
No errors occurred
AccurateRip summary
Track 1 accurately ripped (confidence 1) [FD0E57BF] (AR v2)Track 2 accurately ripped (confidence 1) [A0C74F24] (AR v2)Track 3 accurately ripped (confidence 1) [C39E06A9] (AR v2)Track 4 accurately ripped (confidence 1) [DE7B8AB0] (AR v2)Track 5 accurately ripped (confidence 1) [D4A6B45D] (AR v2)Track 6 accurately ripped (confidence 1) [BF755B2B] (AR v2)Track 7 accurately ripped (confidence 1) [FFDA2524] (AR v2)Track 8 accurately ripped (confidence 1) [5142F126] (AR v2)
All tracks accurately ripped
End of status report
==== Log checksum 37BEF9AEF3894A594F441E215810118E7A9FA14D8E9224F6D5E56D42CD1C2143 ====



Показать сообщения:    

Текущее время: 07-Дек 19:29

Часовой пояс: UTC + 3


Вы не можете начинать темы
Вы не можете отвечать на сообщения
Вы не можете редактировать свои сообщения
Вы не можете удалять свои сообщения
Вы не можете голосовать в опросах
Вы не можете прикреплять файлы к сообщениям
Вы не можете скачивать файлы