(Classical) [LP] [24/48] Georg Kulenkampff - Violin - Из Сокровищницы Мирового Исполнительского Искусства - 1980, FLAC (tracks+.cue)


Статистика раздачи [Обновить пиров]
Размер:  272 MB   |    Зарегистрирован:  1 год 1 месяц   |    Скачан:  0 раз

Полного источника не было: Никогда

Личеров:  1  [  0 KB/s  ]   Подробная статистика пиров
 
   
 
 
 

[Цитировать]

Georg Kulenkampff - Violin - Из Сокровищницы Мирового Исполнительского Искусства
Жанр: Classical
Носитель: LP
Год выпуска: 1980
Лейбл: Melodya (VSG)
Страна-производитель: USSR
Аудио кодек: FLAC
Тип рипа: tracks+.cue
Формат записи: 32/192
Формат раздачи: 24/48
Продолжительность: 50.28 min
Треклист:
Side One:
W. A. Mozart
01. Adagio. in E major, KV 261
Franz Rupp, piano
L. Spohr
Concerto No. 8 For Violin And Orchestra
In A minor, op. 47
02. Im Form einer Gesangs-Szene
Side Two:
R. Schumann
Concerto For Violin And Orchestra
in D minor
03. In Kraftigem, nicht zu schnellem Tempo
04. Langsam/Lebhaft, doch nicht zu schnell
Berlin Philarmonic Orchestra
Conductor Hans Schmidt-Isserstedt
Archive recordings, 1930
Источник оцифровки: автором раздачи
Код класса состояния винила: NM
Устройство воспроизведения: Электроника ЭП 017С
Головка звукоснимателя: Audio-Technica AT95
Предварительный усилитель: Бриг-001
АЦП: VIA HD audio device
Программа-оцифровщик: Izotope RX 4 Advanced
Обработка: Izotope RX 4 Advanced

Спектр+АЧХ+Уровень записи

DR=13

foobar2000 1.1.10 / Dynamic Range Meter 1.1.1
log date: 2015-05-14 16:04:14
--------------------------------------------------------------------------------
Analyzed: Georg Kulenkampff / The World's Leading Interpreters Of Music - Violin
--------------------------------------------------------------------------------
DR Peak RMS Duration Track
--------------------------------------------------------------------------------
DR14 -1.75 dB -19.73 dB 5:30 ?-Adagio. in E major, KV 261
DR15 -0.38 dB -18.82 dB 18:50 ?-Im Form einer Gesangs-Szene
DR12 -1.11 dB -18.01 dB 13:04 ?-In Kraftigem, nicht zu schnellem Tempo
DR12 -1.11 dB -18.01 dB 13:04 ?-Langsam/Lebhaft, doch nicht zu schnell
--------------------------------------------------------------------------------
Number of tracks: 4
Official DR value: DR13
Samplerate: 48000 Hz
Channels: 1
Bits per sample: 24
Bitrate: 729 kbps
Codec: FLAC
================================================================================

Back, Inner & Disc

[teatrix.ru].t10120.torrent 
Торрент: Зарегистрирован [ 2015-10-25 20:37 ] · 7BC5F603CF9B86EEBE24EE87A71342796779FB0B

Скачать .torrent

Скачать

12 KB

Статус: проверено
Скачан: 0 раз
Размер: 272 MB
terms.php



Быстрый ответ

Имя:

      
Для отправки сообщений необходимо включить JavaScript
Показать сообщения:    

Текущее время: 11-Дек 11:06

Часовой пояс: UTC + 3


Вы можете начинать темы
Вы можете отвечать на сообщения
Вы не можете редактировать свои сообщения
Вы не можете удалять свои сообщения
Вы не можете голосовать в опросах
Вы не можете прикреплять файлы к сообщениям
Вы можете скачивать файлы