(Classical) [LP] [24/48] Ф. И. Шаляпин - Искусство Ф. И. Шаляпина (А. Рубинштейн, Флежье, Ш.Гуно, Ж. Массне, М. Мусоргский и др.) - 1978, FLAC (tracks+.cue)


Статистика раздачи [Обновить пиров]
Размер:  462 MB   |    Зарегистрирован:  1 год 1 месяц   |    Скачан:  0 раз

Полного источника не было: Никогда

Личеров:  1  [  0 KB/s  ]   Подробная статистика пиров
 
   
 
 
 

[Цитировать]

Ф. И. Шаляпин - Искусство Ф. И. Шаляпина (12)
Жанр: Classical
Носитель: LP
Год выпуска: 1978
Лейбл: Melodya (VSG)
Страна-производитель: USSR
Аудио кодек: FLAC
Тип рипа: tracks+.cue
Формат записи: 32/192
Формат раздачи: 24/48
Продолжительность: 46.57 min
Треклист:
Side one:
А. Рубинштейн
01. Романс демона ''На воздушном океане''
02. Ария демона ''Я тот,которому внимала''
Флежье
03. Рог
Ш.Гуно
04. Куплеты Мефистофея
05. Заклинание цветов
06. Серенада Мефистофея
Ж. Массне
07. Ария Санчо Пансы
Side Two:
М. Мусоргский
08. Сцена коронации
Н. Римский-Корсаков
09. Все говорят : нет правды на земле
10. Как некий херувим....
11. Ты заснешь надолго, Моцарт!
Архивные записи.1925-1927 г.г
Источник оцифровки: автором раздачи
Код класса состояния винила: Ex
Устройство воспроизведения: Электроника ЭП 017С
Головка звукоснимателя: Audio-Technica AT95
Предварительный усилитель: Бриг-001
АЦП: VIA HD audio device
Программа-оцифровщик: Izotope RX 4 Advanced
Обработка: Manual

Спектр+АЧХ+Уровень записи

DR=12

foobar2000 1.1.10 / Dynamic Range Meter 1.1.1
log date: 2015-01-12 11:59:33
--------------------------------------------------------------------------------
Analyzed: Ф. И. Шаляпин / Искусство Ф. И. Шаляпина (12)
--------------------------------------------------------------------------------
DR Peak RMS Duration Track
--------------------------------------------------------------------------------
DR11 -6.52 dB -23.14 dB 4:36 ?-Романс демона ''На воздушном океане''
DR13 -4.40 dB -23.26 dB 3:44 ?-Ария демона ''Я тот,которому внимала''
DR11 -7.79 dB -22.99 dB 3:57 ?-Рог
DR12 -6.76 dB -22.27 dB 2:06 ?-Куплеты Мефистофея
DR13 -6.68 dB -25.49 dB 2:02 ?-Заклинание цветов
DR13 -6.83 dB -25.65 dB 3:13 ?-Серенада Мефистофея
DR12 -5.94 dB -22.14 dB 4:02 ?-Ария Санчо Пансы
DR11 -5.36 dB -19.91 dB 8:18 ?-Сцена коронации
DR13 -5.85 dB -23.57 dB 7:36 ?-Все говорят : нет правды на земле
DR13 -5.36 dB -23.05 dB 4:17 ?-Как некий херувим....
DR13 -6.19 dB -25.60 dB 3:07 ?-Ты заснешь надолго, Моцарт!
--------------------------------------------------------------------------------
Number of tracks: 11
Official DR value: DR12
Samplerate: 48000 Hz
Channels: 2
Bits per sample: 24
Bitrate: 1289 kbps
Codec: FLAC
================================================================================

Back & Disc

[teatrix.ru].t10133.torrent 
Торрент: Зарегистрирован [ 2015-10-25 20:37 ] · BD92444A8E7E30DD6BE32BD5DBE1EE9B4FDEFBE4

Скачать .torrent

Скачать

20 KB

Статус: проверено
Скачан: 0 раз
Размер: 462 MB
terms.php



Быстрый ответ

Имя:

      
Для отправки сообщений необходимо включить JavaScript
Показать сообщения:    

Текущее время: 09-Дек 20:32

Часовой пояс: UTC + 3


Вы можете начинать темы
Вы можете отвечать на сообщения
Вы не можете редактировать свои сообщения
Вы не можете удалять свои сообщения
Вы не можете голосовать в опросах
Вы не можете прикреплять файлы к сообщениям
Вы можете скачивать файлы